img image001 image001 image001 image001 image001 image001 image001 image001 image001 image001 image001 image001 image001 image001 image001

Planets Sun Sun Sun
Статистика раздачи
Автор: Nickolas3434 | Размер: 743.73 МБ | Добавлен: 09 окт 2014
Раздают: 49    Качают: 19
Скачать торрент
Скачать торрент
Описание торрента

СообщениеДобавлено: 09 окт 2014 

Страна: СССР
Производство: Ленфильм
Жанр: комедия, мелодрама
Год выпуска: 1984
Продолжительность: 01:18:29
Перевод: не требуется
Оригинальная аудиодорожка: русский
Cубтитры: нет
Режиссер: Владимир Бортко
В ролях:
Татьяна Догилева, Андрей Миронов, Марк Прудкин, Евгения Ханаева, Елена Соловей, Анатолий Сливников, Баадур Цуладзе, Анатолий Равикович, Сергей Бехтерев, Павел Кадочников...
Описание:
Устроившись работать грузчиком, бывший астрофизик влюбляется в продавщицу и оказывается в окружении людей, чуждых ему. Он старается приобщить девушку к иной жизни, но на свадебном вечере убожество «служак дефицита» обнажается до предела, и герой сбегает.





Исходник: DVD5 R5
Тип релиза: DVDRip-AVC
Контейнер: MKV
Видео: 696->742x426 (1,743:1), 25 fps, H264 ~ 1131 kbps avg, 0.153 bit/pixel
Аудио: 48 kHz, Dolby Digital AC3 2.0, 192 kbps
Раздача от:
Общее
Полное имя : Blondinka.za.uglom.1984.DVDRip-AVC_[New-team]_by_AVP_Studio.mkv
Формат : Matroska
Версия формата : Version 2
Размер файла : 744 Мбайт
Продолжительность : 1 ч. 18 м.
Общий поток : 1325 Кбит/сек
Дата кодирования : UTC 2014-10-08 11:59:11
Программа кодирования : mkvmerge v6.1.0 ('Old Devil') built on Mar 4 2013 09:10:42
Библиотека кодирования : libebml v1.3.0 + libmatroska v1.4.0
Видео
Идентификатор : 1
Формат : AVC
Формат/Информация : Advanced Video Codec
Профиль формата : High@L4.1
Параметр CABAC формата : Да
Параметр ReFrames формата : 8 кадров
Идентификатор кодека : V_MPEG4/ISO/AVC
Продолжительность : 1 ч. 18 м.
Битрейт : 1131 Кбит/сек
Ширина : 696 пикселей
Высота : 426 пикселей
Соотношение сторон : 16:9
Соотношение сторон в оригинале : 16:9
Режим частоты кадров : Постоянный
Частота кадров : 25,000 кадров/сек
Цветовое пространство : YUV
Субдискретизация насыщенности : 4:2:0
Битовая глубина : 8 бит
Тип развёртки : Прогрессивная
Бит/(Пиксели*Кадры) : 0.153
Размер потока : 621 Мбайт (84%)
Библиотека кодирования : x264 core 138 r2356 a1d3d17
Настройки программы : cabac=1 / ref=8 / deblock=1:-2:-1 / analyse=0x3:0x113 / me=umh / subme=10 / psy=1 / psy_rd=1.00:0.05 / mixed_ref=1 / me_range=32 / chroma_me=1 / trellis=2 / 8x8dct=1 / cqm=0 / deadzone=21,11 / fast_pskip=0 / chroma_qp_offset=-3 / threads=6 / lookahead_threads=1 / sliced_threads=0 / nr=0 / decimate=0 / interlaced=0 / bluray_compat=0 / constrained_intra=0 / bframes=8 / b_pyramid=2 / b_adapt=2 / b_bias=0 / direct=3 / weightb=1 / open_gop=0 / weightp=2 / keyint=250 / keyint_min=25 / scenecut=40 / intra_refresh=0 / rc=2pass / mbtree=0 / bitrate=1131 / ratetol=1.0 / qcomp=0.60 / qpmin=0 / qpmax=69 / qpstep=4 / cplxblur=20.0 / qblur=0.5 / ip_ratio=1.40 / pb_ratio=1.30 / aq=1:1.00
Default : Да
Forced : Нет
Аудио
Идентификатор : 2
Формат : AC-3
Формат/Информация : Audio Coding 3
Расширение режима : CM (complete main)
Параметр Endianness формата : Big
Идентификатор кодека : A_AC3
Продолжительность : 1 ч. 18 м.
Вид битрейта : Постоянный
Битрейт : 192 Кбит/сек
Каналы : 2 канала
Расположение каналов : Front: L R
Частота : 48,0 КГц
Битовая глубина : 16 бит
Метод сжатия : С потерями
Размер потока : 108 Мбайт (14%)
Default : Да
Forced : Нет





   Похожие торренты   Торрент   Размер 
В этой теме нет новых непрочитанных сообщений. Блондинка за углом (1984) DVDRip от New-Team

305 | 53

743.58 МБ

В этой теме нет новых непрочитанных сообщений. Блондинка за углом (1983) DVDRip

123 | 15

1.36 ГБ

В этой теме нет новых непрочитанных сообщений. Под тупым углом / Reverse Angle (2009) DVDRip

2 | 3

696.16 МБ

В этой теме нет новых непрочитанных сообщений. Блондинка в законе 2: Красное, белое и блондинка / Legally Blonde 2: Red, White & Blonde (2003) BDRip от HQCLUB

37 | 6

1.45 ГБ

В этой теме нет новых непрочитанных сообщений. Блондинка в законе 2: Красное, белое и блондинка / Legally Blonde 2: Red, White & Blonde (2003) BDRip-AVC от ExKinoRay

146 | 13

2.21 ГБ

В этой теме нет новых непрочитанных сообщений. Блондинка в эфире / Walk of Shame (2014) DVD5 от New-Team | D | Лицензия

66 | 29

4.21 ГБ

В этой теме нет новых непрочитанных сообщений. Один и без оружия (1984) DVDRip от New-Team

20 | 5

744 МБ




Вы не можете начинать темы
Вы не можете отвечать на сообщения
Вы не можете редактировать свои сообщения
Вы не можете удалять свои сообщения
Вы не можете добавлять вложения

Перейти:  
Для Мосгорсуда, Роскомнадзора и рекламодателей: mosgorsud-torrent[собачка]yandex.ru
 Вход
ppkBB3cker v.2 © 2008-2014 @ PPK
[ Time : 0.029s | 16 Queries | GZIP : Off ]

cron