img image001 image001 image001 image001 image001 image001 image001 image001 image001 image001 image001 image001 image001 image001 image001

Planets Sun Sun Sun
Статистика раздачи
Автор: Nickolas3434 | Размер: 1.36 ГБ | Добавлен: 13 окт 2014
Раздают: 898    Качают: 50
Скачать торрент
Скачать торрент
Описание торрента

СообщениеДобавлено: 13 окт 2014 

Информация о фильме
Название: Москва - Лопушки
Год выхода: 2014
Жанр: Мелодрама, комедия
Режиссёр: Юрий Морозов
В ролях: Анастасия Задорожная, Алла Юганова, Виталий Альшанский, Елена Мольченко, Дмитрий Наумов, Алина Бабак, Мария Кунах, Эрик Дик, Женя Хомжукова
О фильме:
Две сестры – две полные противоположности. Одна – Полина – городская фифа, работающая в крупном книжном издательстве. Другая – Маша – деревенская простушка, которая целыми днями возится в огороде, готовя на продажу заезжающим коммерсантам фермерские продукты. Жених Полины – ее босс, видный бизнесмен. Ухажер Маши – Вася, работяга и рубаха-парень. Все меняется в одночасье, когда в издательство к Полине заявляется жена ее босса, с которой он все как-то забывал развестись, и разом лишает Полину и жениха, и работы. Машина тихая жизнь в Лопушках круто переворачивается, когда скупщики продуктов ставят деревенским условие: либо селяне вдвое снижают цены, либо у них вообще не будут ничего покупать. Маша и Полина меняются местами: Полина мчится в деревню зализывать любовные раны, Маша рвется в Москву самостоятельно наладить поставку продукции в город, чтобы не прогорать на процентах от посредников.

Страна: Россия
Студия: Про100 Фильм
Продолжительность: 01:28:41
Перевод: Не требуется
Файл
Кодек: XviD
Качество: WEB-DLRip [Исходник: WEB-DL (1080p)]
Видео: XviD, 688x384 (16:9), 2002 Кбит/с, 25 кадр/с
Звук: Русский, Dolby AC3, 48000 Гц, 192 Кбит/с, 2 канала (Стерео)
Субтитры: Нет

General
Complete name : Moskva.Lopushki.2014.WEB-DLRip.avi
Format : AVI
Format/Info : Audio Video Interleave
File size : 1.36 GiB
Duration : 1h 28mn
Overall bit rate : 2 202 Kbps
Movie name : Москва - Лопушки (2014) WEB-DLRip
Genre : Мелодрама, комедия
Recorded date : 12.10.2014
Writing application : VirtualDubMod 1.5.10.3 | www.virtualdub-fr.org || (build 2550/release)
Writing library : VirtualDubMod build 2550/release
Copyright : rip by ivandubskoj
Video
ID : 0
Format : MPEG-4 Visual
Format profile : Advanced Simple@L5
Format settings, BVOP : 1
Format settings, QPel : No
Format settings, GMC : No warppoints
Format settings, Matrix : Custom
Codec ID : XVID
Codec ID/Hint : XviD
Duration : 1h 28mn
Bit rate : 2 002 Kbps
Width : 688 pixels
Height : 384 pixels
Display aspect ratio : 16:9
Frame rate : 25.000 fps
Color space : YUV
Chroma subsampling : 4:2:0
Bit depth : 8 bits
Scan type : Progressive
Compression mode : Lossy
Bits/(Pixel*Frame) : 0.303
Stream size : 1.24 GiB (91%)
Writing library : XviD 73
Audio
ID : 1
Format : AC-3
Format/Info : Audio Coding 3
Mode extension : CM (complete main)
Codec ID : 2000
Duration : 1h 28mn
Bit rate mode : Constant
Bit rate : 192 Kbps
Channel(s) : 2 channels
Channel positions : Front: L R
Sampling rate : 48.0 KHz
Bit depth : 16 bits
Compression mode : Lossy
Stream size : 122 MiB (9%)
Alignment : Split accross interleaves
Interleave, duration : 64 ms (1.60 video frames)
Interleave, preload duration : 500 ms
Title : Russian


Автор рипа - ivandubskoj



   Похожие торренты   Торрент   Размер 
В этой теме нет новых непрочитанных сообщений. Москва - Лопушки (2014) WEB-DLRip от ivandubskoj

869 | 53

1.37 ГБ

В этой теме нет новых непрочитанных сообщений. Москва - Лопушки (2014) HDTVRip от ivandubskoj

781 | 36

1.46 ГБ

В этой теме нет новых непрочитанных сообщений. Москва - Лопушки (2014) WEB-DLRip-AVC

313 | 10

1.45 ГБ

В этой теме нет новых непрочитанных сообщений. Москва - Лопушки (2014) WEB-DLRip-AVC от ExKinoRay

293 | 28

1.68 ГБ

В этой теме нет новых непрочитанных сообщений. Москва – Лопушки (2014) WEB-DLRip 720p от MegaPeer

84 | 1

1.36 ГБ

В этой теме нет новых непрочитанных сообщений. Москва - Лопушки (2014) HDTVRip

725 | 27

745.8 МБ

В этой теме нет новых непрочитанных сообщений. Москва – Лопушки (2014) HDTVRip от Files-x

5913 | 198

1.36 ГБ




Вы не можете начинать темы
Вы не можете отвечать на сообщения
Вы не можете редактировать свои сообщения
Вы не можете удалять свои сообщения
Вы не можете добавлять вложения

Перейти:  
Для Мосгорсуда, Роскомнадзора и рекламодателей: mosgorsud-torrent[собачка]yandex.ru
 Вход
ppkBB3cker v.2 © 2008-2014 @ PPK
[ Time : 0.032s | 15 Queries | GZIP : Off ]

Торрент трекер RUTOR.IN, Не можете зайти на rutor.org? Какой новый адрес рутор? Какое зеркало рутор? Не работает rutor.org и зеркала? Тогда наш торрент специально для вас. Rutor.in неофициальное зеркало rutor. В случае если у Вас заблокирован rutor или вдруг Вы не можете на него зайти, то Вы без труда сможете скачать бесплатно и без рекламы последние новинки кино, игр, сериалов и прочего у нас, на Rutor.in. Не нужно использовать прокси, чтобы зайти на рутор, достаточно воспользоваться нашим ресурсом. Все новые фильмы, игры, сериалы, книги и музыка за 2013 и 2014 годы через торрент бесплатно. Скачивайте фильмы в хорошем качестве, игры для пк, xbox, playstation без регистрации. У нас вы найдете новые Зарубежные сериалы и Русские сериалы 2013, 2014, 2015 годов. Оставайтесь с нами, качайте любимые фильмы, игры, сериалы, книги и музыку.