img image001 image001 image001 image001 image001 image001 image001 image001 image001 image001 image001 image001 image001 image001 image001

Planets Sun Sun Sun
Статистика раздачи
Автор: Nickolas3434 | Размер: 1.46 ГБ | Добавлен: 15 окт 2014
Раздают: 299    Качают: 20
Скачать торрент
Скачать торрент
Описание торрента

СообщениеДобавлено: 15 окт 2014 

Страна: СССР, Германия (ФРГ)
Производство: Inter Allianz Film, Мосфильм, Satra, Совэкспортфильм
Жанр: драма, мелодрама, история
Год выпуска: 1978
Продолжительность: 01:47:55
Перевод: не требуется
Оригинальная аудиодорожка: русский
Cубтитры: нет
Режиссер: Эмиль Лотяну
В ролях:
Галина Беляева, Олег Янковский, Кирилл Лавров, Леонид Марков, Светлана Тома, Григоре Григориу, Василий Симчич, Олегар Федоро, Александр Звенигорский, Анна Петрова...
Описание:
Юная Оленька родилась и выросла в бедной семье, поэтому вынуждена выйти замуж за богатого, но нелюбимого человека, который, к тому же, гораздо старше ее. Но сердцу не прикажешь, и страстная любовь вдруг настигает «девушку на выданье» — вот только любящий ее человек не может смириться с тем, что она отдана другому…






Исходник: BDRemux 1080p
Тип релиза: BDRip
Контейнер: AVI
Видео: 720x448 (16:10), 23,976 fps, XviD ~ 1475 kbps avg, 0.191 bit/pixel
Аудио: 48 kHz, Dolby AC3 5.1, 448 kbps
Раздача от:
Общее
Полное имя : Moy.laskovyy.i.nezhnyy.zver.1978.BDRip_[New-team]_by_AVP_Studio.avi
Формат : AVI
Формат/Информация : Audio Video Interleave
Размер файла : 1,46 Гбайт
Продолжительность : 1 ч. 47 м.
Общий поток : 1932 Кбит/сек
Программа кодирования : VirtualDubModRus 1.5.10.2 (build 2542/release)
Библиотека кодирования : VirtualDubMod build 2542/release
Видео
Идентификатор : 0
Формат : MPEG-4 Visual
Профиль формата : Advanced Simple@L5
Параметр BVOP формата : 1
Параметр QPel формата : Нет
Параметр GMC формата : Без точки перехода
Параметр матрицы формата : Выборочная
Идентификатор кодека : XVID
Идентификатор кодека/Подсказка : XviD
Продолжительность : 1 ч. 47 м.
Битрейт : 1475 Кбит/сек
Ширина : 720 пикселей
Высота : 448 пикселей
Соотношение сторон : 16:10
Частота кадров : 23,976 кадра/сек
Цветовое пространство : YUV
Субдискретизация насыщенности : 4:2:0
Битовая глубина : 8 бит
Тип развёртки : Прогрессивная
Метод сжатия : С потерями
Бит/(Пиксели*Кадры) : 0.191
Размер потока : 1,11 Гбайт (76%)
Библиотека кодирования : XviD 73
Аудио
Идентификатор : 1
Формат : AC-3
Формат/Информация : Audio Coding 3
Расширение режима : CM (complete main)
Параметр Endianness формата : Big
Идентификатор кодека : 2000
Продолжительность : 1 ч. 47 м.
Вид битрейта : Постоянный
Битрейт : 448 Кбит/сек
Каналы : 6 каналов
Расположение каналов : Front: L C R, Side: L R, LFE
Частота : 48,0 КГц
Битовая глубина : 16 бит
Метод сжатия : С потерями
Размер потока : 346 Мбайт (23%)
Выравнивание : Разделение по промежуткам
Продолжительность промежутка : 42 мс. (1,00 видеокадр)
Время предзагрузки промежутка : 500 мс





   Похожие торренты   Торрент   Размер 
В этой теме нет новых непрочитанных сообщений. Мой ласковый и нежный зверь (1978) BDRip от New-Team

22 | 5

745.47 МБ

В этой теме нет новых непрочитанных сообщений. Мой ласковый и нежный зверь (1978) BDRip-AVC от New-Team

51 | 14

2.19 ГБ

В этой теме нет новых непрочитанных сообщений. Мой ласковый и нежный зверь (1978) BDRip 720p от NOLIMITS-TEAM

3 | 4

2.37 ГБ

В этой теме нет новых непрочитанных сообщений. Мой ласковый и нежный зверь (1978) BDRip-AVC 720p

53 | 11

4.33 ГБ

В этой теме нет новых непрочитанных сообщений. Мой ласковый и нежный зверь (1978) BDRip от HQCLUB

17 | 4

1.95 ГБ

В этой теме нет новых непрочитанных сообщений. Мой ласковый и нежный зверь (1978) BDRip 1080 от HDReactor

101 | 6

9.97 ГБ

В этой теме нет новых непрочитанных сообщений. Мой ласковый и нежный зверь (1978) BDRip 720p от Fenix

2 | 2

2.61 ГБ




Вы не можете начинать темы
Вы не можете отвечать на сообщения
Вы не можете редактировать свои сообщения
Вы не можете удалять свои сообщения
Вы не можете добавлять вложения

Перейти:  
Для Мосгорсуда, Роскомнадзора и рекламодателей: mosgorsud-torrent[собачка]yandex.ru
 Вход
ppkBB3cker v.2 © 2008-2014 @ PPK
[ Time : 0.035s | 17 Queries | GZIP : Off ]

cron