img image001 image001 image001 image001 image001 image001 image001 image001 image001 image001 image001 image001 image001 image001 image001

Planets Sun Sun Sun
Статистика раздачи
Автор: Nickolas3434 | Размер: 2.73 ГБ | Добавлен: 22 окт 2014
Раздают: 3267    Качают: 179
Скачать торрент
Скачать торрент
Описание торрента

СообщениеДобавлено: 22 окт 2014 

Информация о фильме
Оригинальное название: Корпоратив
Год выхода: 2014
Жанр: Kомедия
Режиссер: Олег Асадулин
В ролях: Николай Наумов, Владимир Толоконников, Мирослава Карпович, Андрей Федорцов, Аристарх Венес, Марина Федункив, Михаил Башкатов, Максим Виторган, Сергей Белоголовцев, Роман Юнусов
О фильме:
Игорь — старший менеджер в мебельном салоне, мечтающий о повышении. На следующий день после корпоративной вечеринки он обнаруживает, что салон полностью разгромлен. Сотрудники утверждают, что когда они уходили, всё было в порядке. Игоря это не устраивает, ведь теперь на кону его карьера. Пытаясь выяснить, что же произошло, Игорь узнаёт шокирующие подробности о ночных приключениях своих коллег…

Страна: Россия
Студия: Enjoy Movies
Продолжительность: 01:25:03
Файл
Качество: DVB
Видео: MPEG-2, 3714 Кбит/с, 720x576@1024x576
Звук: Русский (АС3, 6 ch, 448 Кбит/с) / (MP2, 2 ch, 192 Кбит/с)
Семпл

Общее
Идентификатор : 11 (0xB)
Полное имя : Korporativ.2014.DVB.MediaClub.ts
Формат : MPEG-TS
Размер файла : 2,73 Гбайт
Продолжительность : 1 ч. 25 м.
Режим общего битрейта : Переменный
Общий поток : 4588 Кбит/сек
Видео
Идентификатор : 326 (0x146)
Идентификатор меню : 11106 (0x2B62)
Формат : MPEG Video
Версия формата : Version 2
Профиль формата : Main@Main
Параметр BVOP формата : Да
Параметр матрицы формата : Выборочная
Параметр GOP формата : Variable
Идентификатор кодека : 2
Продолжительность : 1 ч. 25 м.
Вид битрейта : Переменный
Битрейт : 3714 Кбит/сек
Максимальный битрейт : 15,0 Мбит/сек
Ширина : 720 пикселей
Высота : 576 пикселей
Соотношение сторон : 16:9
Частота кадров : 25,000 кадров/сек
Стандарт вещания : PAL
Цветовое пространство : YUV
Субдискретизация насыщенности : 4:2:0
Битовая глубина : 8 бит
Тип развёртки : Чересстрочная
Порядок развёртки : Верхнее поле первое
Метод сжатия : С потерями
Бит/(Пиксели*Кадры) : 0.358
Размер потока : 2,21 Гбайт (81%)
Аудио #1
Идентификатор : 406 (0x196)
Идентификатор меню : 11106 (0x2B62)
Формат : MPEG Audio
Версия формата : Version 1
Профиль формата : Layer 2
Идентификатор кодека : 4
Продолжительность : 1 ч. 25 м.
Вид битрейта : Постоянный
Битрейт : 192 Кбит/сек
Каналы : 2 канала
Частота : 48,0 КГц
Метод сжатия : С потерями
Задержка видео : -247 мс.
Размер потока : 117 Мбайт (4%)
Язык : Russian
Язык, дополнительно : Clean effects
Аудио #2
Идентификатор : 426 (0x1AA)
Идентификатор меню : 11106 (0x2B62)
Формат : AC-3
Формат/Информация : Audio Coding 3
Расширение режима : CM (complete main)
Параметр Endianness формата : Big
Идентификатор кодека : 6
Продолжительность : 1 ч. 25 м.
Вид битрейта : Постоянный
Битрейт : 448 Кбит/сек
Каналы : 6 каналов
Расположение каналов : Front: L C R, Side: L R, LFE
Частота : 48,0 КГц
Битовая глубина : 16 бит
Метод сжатия : С потерями
Задержка видео : -156 мс.
Размер потока : 273 Мбайт (10%)
Язык : Russian
Язык, дополнительно : Clean effects
Меню
Идентификатор : 3306 (0xCEA)
Идентификатор меню : 11106 (0x2B62)
Продолжительность : 1 ч. 25 м.
Список : 326 (0x146) (MPEG Video) / 406 (0x196) (MPEG Audio, Russian) / 426 (0x1AA) (AC-3, Russian)
Язык : / Russian / Russian

Релиз от:



   Похожие торренты   Торрент   Размер 
В этой теме нет новых непрочитанных сообщений. Корпоратив (2014) SATRip от MediaClub

3791 | 316

1.36 ГБ

В этой теме нет новых непрочитанных сообщений. Корпоратив (2014) WEBRip

1547 | 33

699.3 МБ

В этой теме нет новых непрочитанных сообщений. Корпоратив (2014) WEB-DLRip-AVC

660 | 25

1.38 ГБ

В этой теме нет новых непрочитанных сообщений. Корпоратив (2014) WEB-DL 720p

2260 | 107

2.71 ГБ

В этой теме нет новых непрочитанных сообщений. Корпоратив (2014) WEB-DLRip

1593 | 47

1.37 ГБ

В этой теме нет новых непрочитанных сообщений. Корпоратив (2014) WEB-DL 1080р

269 | 47

3.31 ГБ

В этой теме нет новых непрочитанных сообщений. Корпоратив (2014) WEBRip

15158 | 929

1.37 ГБ




Вы не можете начинать темы
Вы не можете отвечать на сообщения
Вы не можете редактировать свои сообщения
Вы не можете удалять свои сообщения
Вы не можете добавлять вложения

Перейти:  
Для Мосгорсуда, Роскомнадзора и рекламодателей: mosgorsud-torrent[собачка]yandex.ru
 Вход
ppkBB3cker v.2 © 2008-2014 @ PPK
[ Time : 0.055s | 16 Queries | GZIP : Off ]

Торрент трекер RUTOR.IN, Не можете зайти на rutor.org? Какой новый адрес рутор? Какое зеркало рутор? Не работает rutor.org и зеркала? Тогда наш торрент специально для вас. Rutor.in неофициальное зеркало rutor. В случае если у Вас заблокирован rutor или вдруг Вы не можете на него зайти, то Вы без труда сможете скачать бесплатно и без рекламы последние новинки кино, игр, сериалов и прочего у нас, на Rutor.in. Не нужно использовать прокси, чтобы зайти на рутор, достаточно воспользоваться нашим ресурсом. Все новые фильмы, игры, сериалы, книги и музыка за 2013 и 2014 годы через торрент бесплатно. Скачивайте фильмы в хорошем качестве, игры для пк, xbox, playstation без регистрации. У нас вы найдете новые Зарубежные сериалы и Русские сериалы 2013, 2014, 2015 годов. Оставайтесь с нами, качайте любимые фильмы, игры, сериалы, книги и музыку.