img image001 image001 image001 image001 image001 image001 image001 image001 image001 image001 image001 image001 image001 image001 image001

Planets Sun Sun Sun
Статистика раздачи
Автор: Nickolas3434 | Размер: 744.54 МБ | Добавлен: 23 окт 2014
Раздают: 7    Качают: 12
Скачать торрент
Скачать торрент
Описание торрента

СообщениеДобавлено: 23 окт 2014 

Страна: СССР
Производство: Киевская киностудия
Жанр: приключения
Год выпуска: 1939
Продолжительность: 1:31:46
Перевод: не требуется
Оригинальная аудиодорожка: русский
Cубтитры: нет
Режиссер: Эдуард Пенцлин
В ролях:
Марк Бернес, Евгения Голынчик, Борис Андреев, Федор Селезнев, Владимир Уральский, Алексей Загорский, Елена Музиль, Е. Лилина, Степан Жаворонок, Евгений Агеев...
Описание:
Летчики-истребители Сергей и Николай вместе испытывают новые самолеты и во всем стараются превзойти друг друга. Их соперничество началось еще в школьные годы, когда оба были увлечены симпатичной одноклассницей Варей. Трагическая случайность привела Сергея к полной слепоте. Варе, давно любящей его, предстоит нелегкое решение: стать женой инвалида…





Исходник: DVD9 R5
Тип релиза: DVDRip
Контейнер: AVI
Видео: 624x464 (4:3), 25 fps, XviD ~ 996 kbps avg, 0.138 bit/pixel
Аудио: 48 kHz, MP3 2.0, 128 kbps
Раздача от:
Общее
Полное имя : Istrebiteli.1939.DVDRip-745_[New-team]_by_AVP_Studio.avi
Формат : AVI
Формат/Информация : Audio Video Interleave
Размер файла : 745 Мбайт
Продолжительность : 1 ч. 31 м.
Общий поток : 1134 Кбит/сек
Программа кодирования : VirtualDubModRus 1.5.10.2 (build 2542/release)
Библиотека кодирования : VirtualDubMod build 2542/release
Видео
Идентификатор : 0
Формат : MPEG-4 Visual
Профиль формата : Advanced Simple@L5
Параметр BVOP формата : 1
Параметр QPel формата : Нет
Параметр GMC формата : Без точки перехода
Параметр матрицы формата : Выборочная
Идентификатор кодека : XVID
Идентификатор кодека/Подсказка : XviD
Продолжительность : 1 ч. 31 м.
Битрейт : 996 Кбит/сек
Ширина : 624 пикселя
Высота : 464 пикселя
Соотношение сторон : 4:3
Частота кадров : 25,000 кадров/сек
Цветовое пространство : YUV
Субдискретизация насыщенности : 4:2:0
Битовая глубина : 8 бит
Тип развёртки : Прогрессивная
Метод сжатия : С потерями
Бит/(Пиксели*Кадры) : 0.138
Размер потока : 654 Мбайт (88%)
Библиотека кодирования : XviD 73
Аудио
Идентификатор : 1
Формат : MPEG Audio
Версия формата : Version 1
Профиль формата : Layer 3
Идентификатор кодека : 55
Идентификатор кодека/Подсказка : MP3
Продолжительность : 1 ч. 31 м.
Вид битрейта : Постоянный
Битрейт : 128 Кбит/сек
Каналы : 2 канала
Частота : 48,0 КГц
Метод сжатия : С потерями
Размер потока : 84,0 Мбайт (11%)
Выравнивание : Соединение по промежуткам
Продолжительность промежутка : 40 мс. (1,00 видеокадр)
Время предзагрузки промежутка : 504 мс.
Библиотека кодирования : LAME3.99r
Настройки программы : -m s -V 4 -q 2 -lowpass 17 -b 128





   Похожие торренты   Торрент   Размер 
В этой теме нет новых непрочитанных сообщений. Истребители (1939) DVDRip от New-Team

32 | 22

1.45 ГБ

В этой теме нет новых непрочитанных сообщений. Истребители (1939) DVDRip-AVC от New-Team

155 | 38

1.46 ГБ

В этой теме нет новых непрочитанных сообщений. Истребители (1939) DVDRip от Киномагия

12 | 4

1.37 ГБ

В этой теме нет новых непрочитанных сообщений. Истребители (1939) SATRip-AVC от ExKinoRay

21 | 8

1.41 ГБ

В этой теме нет новых непрочитанных сообщений. Танкисты / Истребители (1939) DVD5 от Русфильм

14 | 14

4.35 ГБ

В этой теме нет новых непрочитанных сообщений. Мойдодыр (1939,1954), Тараканище, Федорино горе, От двух до пяти, Ваня и крокодил, Краденое солнце (1939-1984) DVDRip от New-Team

397 | 34

1.45 ГБ

В этой теме нет новых непрочитанных сообщений. Мойдодыр (1939,1954), Тараканище, Федорино горе, От двух до пяти, Ваня и крокодил, Краденое солнце (1939-1984) DVDRip от New-Team

568 | 33

744.47 МБ




Вы не можете начинать темы
Вы не можете отвечать на сообщения
Вы не можете редактировать свои сообщения
Вы не можете удалять свои сообщения
Вы не можете добавлять вложения

Перейти:  
Для Мосгорсуда, Роскомнадзора и рекламодателей: mosgorsud-torrent[собачка]yandex.ru
 Вход
ppkBB3cker v.2 © 2008-2014 @ PPK
[ Time : 0.021s | 15 Queries | GZIP : Off ]

Торрент трекер RUTOR.IN, Не можете зайти на rutor.org? Какой новый адрес рутор? Какое зеркало рутор? Не работает rutor.org и зеркала? Тогда наш торрент специально для вас. Rutor.in неофициальное зеркало rutor. В случае если у Вас заблокирован rutor или вдруг Вы не можете на него зайти, то Вы без труда сможете скачать бесплатно и без рекламы последние новинки кино, игр, сериалов и прочего у нас, на Rutor.in. Не нужно использовать прокси, чтобы зайти на рутор, достаточно воспользоваться нашим ресурсом. Все новые фильмы, игры, сериалы, книги и музыка за 2013 и 2014 годы через торрент бесплатно. Скачивайте фильмы в хорошем качестве, игры для пк, xbox, playstation без регистрации. У нас вы найдете новые Зарубежные сериалы и Русские сериалы 2013, 2014, 2015 годов. Оставайтесь с нами, качайте любимые фильмы, игры, сериалы, книги и музыку.