img image001 image001 image001 image001 image001 image001 image001 image001 image001 image001 image001 image001 image001 image001 image001

Planets Sun Sun Sun
Статистика раздачи
Автор: Nickolas3434 | Размер: 1.36 ГБ | Добавлен: 23 окт 2014
Раздают: 3791    Качают: 316
Скачать торрент
Скачать торрент
Описание торрента

СообщениеДобавлено: 23 окт 2014 

Информация о фильме
Оригинальное название: Корпоратив
Год выхода: 2014
Жанр: Kомедия
Режиссер: Олег Асадулин
В ролях: Николай Наумов, Владимир Толоконников, Мирослава Карпович, Андрей Федорцов, Аристарх Венес, Марина Федункив, Михаил Башкатов, Максим Виторган, Сергей Белоголовцев, Роман Юнусов
О фильме:
Игорь — старший менеджер в мебельном салоне, мечтающий о повышении. На следующий день после корпоративной вечеринки он обнаруживает, что салон полностью разгромлен. Сотрудники утверждают, что когда они уходили, всё было в порядке. Игоря это не устраивает, ведь теперь на кону его карьера. Пытаясь выяснить, что же произошло, Игорь узнаёт шокирующие подробности о ночных приключениях своих коллег…

Страна: Россия
Студия: Enjoy Movies
Продолжительность: 01:25:03
Файл
Кодек: XviD
Качество: SATRip
Видео: 1835 Кбит/с, 720x384, 25.000 кадр/с
Звук: (АС3, 6 ch, 448 Кбит/с)
Семпл

Общее
Полное имя : Korporativ.2014.SATRip.MediaClub.avi
Формат : AVI
Формат/Информация : Audio Video Interleave
Размер файла : 1,36 Гбайт
Продолжительность : 1 ч. 25 м.
Общий поток : 2293 Кбит/сек
Название фильма : MediaClub
Программа кодирования : VirtualDubMod 1.5.10.2 (build 2540/release)
Библиотека кодирования : VirtualDubMod build 2540/release
Видео
Идентификатор : 0
Формат : MPEG-4 Visual
Профиль формата : Advanced Simple@L5
Параметр BVOP формата : 2
Параметр QPel формата : Нет
Параметр GMC формата : Без точки перехода
Параметр матрицы формата : Default (MPEG)
Идентификатор кодека : XVID
Идентификатор кодека/Подсказка : XviD
Продолжительность : 1 ч. 25 м.
Битрейт : 1835 Кбит/сек
Ширина : 720 пикселей
Высота : 384 пикселя
Соотношение сторон : 1,85:1
Частота кадров : 25,000 кадров/сек
Цветовое пространство : YUV
Субдискретизация насыщенности : 4:2:0
Битовая глубина : 8 бит
Тип развёртки : Прогрессивная
Метод сжатия : С потерями
Бит/(Пиксели*Кадры) : 0.265
Размер потока : 1,09 Гбайт (80%)
Библиотека кодирования : XviD 65
Аудио
Идентификатор : 1
Формат : AC-3
Формат/Информация : Audio Coding 3
Расширение режима : CM (complete main)
Параметр Endianness формата : Big
Идентификатор кодека : 2000
Продолжительность : 1 ч. 25 м.
Вид битрейта : Постоянный
Битрейт : 448 Кбит/сек
Каналы : 6 каналов
Расположение каналов : Front: L C R, Side: L R, LFE
Частота : 48,0 КГц
Битовая глубина : 16 бит
Метод сжатия : С потерями
Размер потока : 273 Мбайт (20%)
Выравнивание : Разделение по промежуткам
Продолжительность промежутка : 40 мс. (1,00 видеокадр)
Время предзагрузки промежутка : 500 мс.

Релиз от:



   Похожие торренты   Торрент   Размер 
В этой теме нет новых непрочитанных сообщений. Корпоратив (2014) DVB от MediaClub

3267 | 179

2.73 ГБ

В этой теме нет новых непрочитанных сообщений. Корпоратив (2014) WEB-DL 720p

2260 | 107

2.71 ГБ

В этой теме нет новых непрочитанных сообщений. Корпоратив (2014) WEB-DLRip

1593 | 47

1.37 ГБ

В этой теме нет новых непрочитанных сообщений. Корпоратив (2014) WEB-DL 1080р

269 | 47

3.31 ГБ

В этой теме нет новых непрочитанных сообщений. Корпоратив (2014) WEB-DLRip-AVC

660 | 25

1.38 ГБ

В этой теме нет новых непрочитанных сообщений. Корпоратив (2014) WEBRip

15158 | 929

1.37 ГБ

В этой теме нет новых непрочитанных сообщений. Корпоратив (2014) WEBRip

1547 | 33

699.3 МБ




Вы не можете начинать темы
Вы не можете отвечать на сообщения
Вы не можете редактировать свои сообщения
Вы не можете удалять свои сообщения
Вы не можете добавлять вложения

Перейти:  
Для Мосгорсуда, Роскомнадзора и рекламодателей: mosgorsud-torrent[собачка]yandex.ru
 Вход
ppkBB3cker v.2 © 2008-2014 @ PPK
[ Time : 4.119s | 15 Queries | GZIP : Off ]

Торрент трекер RUTOR.IN, Не можете зайти на rutor.org? Какой новый адрес рутор? Какое зеркало рутор? Не работает rutor.org и зеркала? Тогда наш торрент специально для вас. Rutor.in неофициальное зеркало rutor. В случае если у Вас заблокирован rutor или вдруг Вы не можете на него зайти, то Вы без труда сможете скачать бесплатно и без рекламы последние новинки кино, игр, сериалов и прочего у нас, на Rutor.in. Не нужно использовать прокси, чтобы зайти на рутор, достаточно воспользоваться нашим ресурсом. Все новые фильмы, игры, сериалы, книги и музыка за 2013 и 2014 годы через торрент бесплатно. Скачивайте фильмы в хорошем качестве, игры для пк, xbox, playstation без регистрации. У нас вы найдете новые Зарубежные сериалы и Русские сериалы 2013, 2014, 2015 годов. Оставайтесь с нами, качайте любимые фильмы, игры, сериалы, книги и музыку.