img image001 image001 image001 image001 image001 image001 image001 image001 image001 image001 image001 image001 image001 image001 image001

Planets Sun Sun Sun
Статистика раздачи
Автор: Nickolas3434 | Размер: 4.33 ГБ | Добавлен: 24 окт 2014
Раздают: 53    Качают: 11
Скачать торрент
Скачать торрент
Описание торрента

СообщениеДобавлено: 24 окт 2014 


Информация о фильме
Название: Мой ласковый и нежный зверь
Год выхода: 1978
Режиссер: Эмиль Лотяну
В ролях: Галина Беляева, Олег Янковский, Кирилл Лавров, Леонид Марков, Светлана Тома, Григоре Григориу, Василий Симчич, Олегар Федоро, Анна Петрова, Николай Лекарев
О фильме:
Юная Оленька родилась и выросла в бедной семье, поэтому вынуждена выйти замуж за богатого, но нелюбимого человека, который, к тому же, гораздо старше ее. Но сердцу не прикажешь, и страстная любовь вдруг настигает «девушку на выданье» — вот только любящий ее человек не может смириться с тем, что она отдана другому…
Страна: СССР, Германия (ФРГ)
Студия: Мосфильм
Продолжительность: 01:47:56
Перевод: без перевода
Файл
Кодек: AVC
Качество: BDRip-AVC 720p
Видео: MPEG4 Video (H264) 1160x720 5100 Кбит/сек 23.98fps
Звук: Dolby AC3 48000Hz 640 Кбит/сек 6ch











Общее
Уникальный идентификатор : 225887641979421877512054628084139923783 (0xA9F0609BAE99328D91BA2A13AD0B9947)
Полное имя : Мой ласковый и нежный зверьMoi_laskovii_i_nezhnii_zver_BDRip_720p.mkv
Формат : Matroska
Размер файла : 4,33 Гбайт
Продолжительность : 1 ч. 47 м.
Общий поток : 5742 Кбит/сек
Дата кодирования : UTC 2012-10-02 16:34:40
Программа кодирования : mkvmerge v5.8.0 ('No Sleep / Pillow') built on Sep 2 2012 15:37:04
Библиотека кодирования : libebml v1.2.3 + libmatroska v1.3.0
Видео
Идентификатор : 1
Формат : AVC
Формат/Информация : Advanced Video Codec
Профиль формата : High@L4.1
Параметр CABAC формата : Да
Параметр ReFrames формата : 9 кадров
Идентификатор кодека : V_MPEG4/ISO/AVC
Продолжительность : 1 ч. 47 м.
Битрейт : 5100 Кбит/сек
Ширина : 1160 пикс.
Высота : 720 пикс.
Соотношение сторон : 1,611
Частота кадров : 23,976 кадр/сек
Цветовое пространство : YUV
Подвыборка цветности : 4:2:0
Битовая глубина : 8 бит
Тип развёртки : Прогрессивная
Бит/(Пиксели*Кадры) : 0.255
Размер потока : 3,76 Гбайт (87%)
Библиотека кодирования : x264 core 128 r2216kMod 198a7ea
Настройки программы : cabac=1 / ref=9 / deblock=1:-2:-2 / analyse=0x3:0x113 / me=umh / subme=11 / psy=1 / fade_compensate=0.00 / psy_rd=1.10:0.10 / mixed_ref=1 / me_range=24 / chroma_me=1 / trellis=2 / 8x8dct=1 / cqm=0 / deadzone=21,11 / fast_pskip=0 / chroma_qp_offset=-3 / threads=3 / lookahead_threads=1 / sliced_threads=0 / nr=0 / decimate=0 / interlaced=0 / bluray_compat=0 / constrained_intra=0 / bframes=7 / b_pyramid=2 / b_adapt=2 / b_bias=0 / direct=3 / weightb=1 / open_gop=0 / weightp=2 / keyint=250 / keyint_min=23 / scenecut=40 / intra_refresh=0 / rc=2pass / mbtree=0 / bitrate=5100 / ratetol=1.0 / qcomp=0.70 / qpmin=0 / qpmax=69 / qpstep=4 / cplxblur=20.0 / qblur=0.5 / ip_ratio=1.40 / pb_ratio=1.30 / aq=3:0.70
Аудио
Идентификатор : 2
Формат : AC-3
Формат/Информация : Audio Coding 3
Расширение режима : CM (complete main)
Идентификатор кодека : A_AC3
Продолжительность : 1 ч. 47 м.
Вид битрейта : Постоянный
Битрейт : 640 Кбит/сек
Каналы : 6 каналов
Расположение каналов : Front: L C R, Side: L R, LFE
Частота : 48,0 КГц
Битовая глубина : 16 бит
Метод сжатия : С потерями
Размер потока : 494 Мбайт (11%)
Язык : Russian


Оставайтесь на раздаче, я не могу долго сидировать свои раздачи, все будет держатся на вашей инициативе. Спасибо!



   Похожие торренты   Торрент   Размер 
В этой теме нет новых непрочитанных сообщений. Мой ласковый и нежный зверь (1978) BDRip 720p от Fenix

2 | 2

2.61 ГБ

В этой теме нет новых непрочитанных сообщений. Мой ласковый и нежный зверь (1978) BDRip 720p от NOLIMITS-TEAM

3 | 4

2.37 ГБ

В этой теме нет новых непрочитанных сообщений. Мой ласковый и нежный зверь (1978) BDRip от New-Team

319 | 21

1.46 ГБ

В этой теме нет новых непрочитанных сообщений. Мой ласковый и нежный зверь (1978) BDRip-AVC от New-Team

68 | 17

2.19 ГБ

В этой теме нет новых непрочитанных сообщений. Мой ласковый и нежный зверь (1978) BDRip от HQCLUB

17 | 4

1.95 ГБ

В этой теме нет новых непрочитанных сообщений. Мой ласковый и нежный зверь (1978) BDRip от New-Team

22 | 6

745.47 МБ

В этой теме нет новых непрочитанных сообщений. Мой ласковый и нежный зверь (1978) BDRip 1080 от HDReactor

101 | 6

9.97 ГБ




Вы не можете начинать темы
Вы не можете отвечать на сообщения
Вы не можете редактировать свои сообщения
Вы не можете удалять свои сообщения
Вы не можете добавлять вложения

Перейти:  
Для Мосгорсуда, Роскомнадзора и рекламодателей: mosgorsud-torrent[собачка]yandex.ru
 Вход
ppkBB3cker v.2 © 2008-2014 @ PPK
[ Time : 0.051s | 14 Queries | GZIP : Off ]

Торрент трекер RUTOR.IN, Не можете зайти на rutor.org? Какой новый адрес рутор? Какое зеркало рутор? Не работает rutor.org и зеркала? Тогда наш торрент специально для вас. Rutor.in неофициальное зеркало rutor. В случае если у Вас заблокирован rutor или вдруг Вы не можете на него зайти, то Вы без труда сможете скачать бесплатно и без рекламы последние новинки кино, игр, сериалов и прочего у нас, на Rutor.in. Не нужно использовать прокси, чтобы зайти на рутор, достаточно воспользоваться нашим ресурсом. Все новые фильмы, игры, сериалы, книги и музыка за 2013 и 2014 годы через торрент бесплатно. Скачивайте фильмы в хорошем качестве, игры для пк, xbox, playstation без регистрации. У нас вы найдете новые Зарубежные сериалы и Русские сериалы 2013, 2014, 2015 годов. Оставайтесь с нами, качайте любимые фильмы, игры, сериалы, книги и музыку.