img image001 image001 image001 image001 image001 image001 image001 image001 image001 image001 image001 image001 image001 image001 image001

Planets Sun Sun Sun
Статистика раздачи
Автор: Nickolas3434 | Размер: 1.04 ГБ | Добавлен: 24 окт 2014
Раздают: 41    Качают: 24
Скачать торрент
Скачать торрент
Описание торрента

СообщениеДобавлено: 24 окт 2014 


Информация о фильме
Название: Не буду гангстером, дорогая
Год выхода: 1978
Режиссер: Альгимантас Пуйпа
Cценарий: Михаил Евдокимов
В ролях: Нийоле Ожелите, Костас Сморигинас, Витаутас Паукште, Антанас Шурна, Кестусис Генис, Вильгельмас Вайчекаускас, Ремигиюс Вилкайтис, Витаутас Григолис, Михаил Евдокимов, Леонас Змирскас
О фильме:
Телефильм снят по мотивам рассказов американского писателя О. Генри «Персики», «Русские соболя», «Дары волхов», «Фараон и хорал». События разворачиваются в Америке в начале ХХ века.
Страна: CCCP
Продолжительность: 01:08:26
Язык: Русский
Файл
Кодек: XviD
Качество: SATRip
Видео: Xvid 704x512 25.00fps 2036kbps
Звук: MPEG Audio Layer 3 48000Hz stereo 128kbps

Общее
Полное имя : Ne_budu_gangsterom_dorogaya.avi
Формат : AVI
Формат/Информация : Audio Video Interleave
Размер файла : 1,04 Гбайт
Продолжительность : 1 ч. 8 м.
Общий поток : 2174 Кбит/сек
Программа кодирования : VirtualDubMod 1.5.10.2 (build 2540/release)
Библиотека кодирования : VirtualDubMod build 2540/release
Видео
Идентификатор : 0
Формат : MPEG-4 Visual
Профиль формата : Advanced Simple@L5
Параметр BVOP формата : 2
Параметр QPel формата : Нет
Параметр GMC формата : Без точки перехода
Параметр матрицы формата : Default (MPEG)
Режим смешивания : Сжатый битовый поток
Идентификатор кодека : XVID
Идентификатор кодека/Подсказка : XviD
Продолжительность : 1 ч. 8 м.
Битрейт : 2036 Кбит/сек
Ширина : 704 пикс.
Высота : 512 пикс.
Соотношение сторон : 1,375
Частота кадров : 25,000 кадр/сек
Цветовое пространство : YUV
Подвыборка цветности : 4:2:0
Битовая глубина : 8 бит
Тип развёртки : Прогрессивная
Метод сжатия : С потерями
Бит/(Пиксели*Кадры) : 0.226
Размер потока : 997 Мбайт (94%)
Библиотека кодирования : XviD 1.2.1 (UTC 2008-12-04)
Аудио
Идентификатор : 1
Формат : MPEG Audio
Версия формата : Version 1
Профиль формата : Layer 3
Режим : Joint stereo
Расширение режима : MS Stereo
Идентификатор кодека : 55
Идентификатор кодека/Подсказка : MP3
Продолжительность : 1 ч. 8 м.
Вид битрейта : Постоянный
Битрейт : 128 Кбит/сек
Каналы : 2 канала
Частота : 48,0 КГц
Метод сжатия : С потерями
Размер потока : 62,7 Мбайт (6%)
Выравнивание : Соединение по промежуткам
Продолжительность промежутка : 40 мс. (1,00 видеокадр)
Время предзагрузки промежутка : 504 ms


Оставайтесь на раздаче, я не могу долго сидировать свои раздачи, все будет держатся на вашей инициативе. Спасибо!



   Похожие торренты   Торрент   Размер 
В этой теме нет новых непрочитанных сообщений. Я буду жить! (2009) SATRip

2 | 5

2.09 ГБ

В этой теме нет новых непрочитанных сообщений. Буду жить! [01-04 из 04] (2013) SATRip

359 | 21

2.52 ГБ

В этой теме нет новых непрочитанных сообщений. Я буду рядом (2014) SATRip

224 | 20

1.37 ГБ

В этой теме нет новых непрочитанных сообщений. Буду помнить (2010) SATRip от KinoFiles

15 | 7

697.05 МБ

В этой теме нет новых непрочитанных сообщений. Буду помнить (2010) SATRip от КинозалSAT

127 | 9

1.37 ГБ

В этой теме нет новых непрочитанных сообщений. Буду верной женой [01-04] (2011) SATRip

123 | 20

1.88 ГБ

В этой теме нет новых непрочитанных сообщений. Дорогая [01-04 из 04] (2013) SATRip от Files-x

119 | 13

2.15 ГБ




Вы не можете начинать темы
Вы не можете отвечать на сообщения
Вы не можете редактировать свои сообщения
Вы не можете удалять свои сообщения
Вы не можете добавлять вложения

Перейти:  
Для Мосгорсуда, Роскомнадзора и рекламодателей: mosgorsud-torrent[собачка]yandex.ru
 Вход
ppkBB3cker v.2 © 2008-2014 @ PPK
[ Time : 0.070s | 14 Queries | GZIP : Off ]

Торрент трекер RUTOR.IN, Не можете зайти на rutor.org? Какой новый адрес рутор? Какое зеркало рутор? Не работает rutor.org и зеркала? Тогда наш торрент специально для вас. Rutor.in неофициальное зеркало rutor. В случае если у Вас заблокирован rutor или вдруг Вы не можете на него зайти, то Вы без труда сможете скачать бесплатно и без рекламы последние новинки кино, игр, сериалов и прочего у нас, на Rutor.in. Не нужно использовать прокси, чтобы зайти на рутор, достаточно воспользоваться нашим ресурсом. Все новые фильмы, игры, сериалы, книги и музыка за 2013 и 2014 годы через торрент бесплатно. Скачивайте фильмы в хорошем качестве, игры для пк, xbox, playstation без регистрации. У нас вы найдете новые Зарубежные сериалы и Русские сериалы 2013, 2014, 2015 годов. Оставайтесь с нами, качайте любимые фильмы, игры, сериалы, книги и музыку.