img image001 image001 image001 image001 image001 image001 image001 image001 image001 image001 image001 image001 image001 image001 image001

Planets Sun Sun Sun
Статистика раздачи
Автор: Nickolas3434 | Размер: 744.87 МБ | Добавлен: 24 окт 2014
Раздают: 76    Качают: 22
Скачать торрент
Скачать торрент
Описание торрента

СообщениеДобавлено: 24 окт 2014 

Страна: Россия
Производство: Cinebridge
Жанр: боевик, военный
Год выпуска: 2004
Продолжительность: 01:33:06
Перевод: не требуется
Оригинальная аудиодорожка: русский
Cубтитры: нет
Режиссер: Виталий Воробьев
В ролях:
Павел Майков, Михаил Присмотров-Белов, Василий Слюсаренко, Сергей Потапов, Александр Сериков, Игорь Марычев, Тимур Савин, Михаил Васьков, Алексей Ильин, Николай Карпенко, Антон Аносов, Сергей Беседин, Александр Бобков, Александр Борисенко, Сергей Греков, Алексей Игнатьев, Григорий Калинин, Антонина Колиниченко, Роман Квашнин, Ирина Пантелеева...
Описание:
Войны заканчиваются не тогда, когда под тем или иным документом поставлена маршальская подпись, а когда прекращают стрелять. Действие фильма происходит сразу после войны на территории Чехии. Германия капитулировала, но в тылах Советской Армии еще продолжают сопротивляться разрозненные фашистские отряды. Командиру разведроты старшему лейтенанту Воронкову приказано обезвредить одну из таких немецких групп. Собственных сил не хватает, поэтому Воронков обращается к соседям — казачьему соединению. Задание поначалу кажется несложным. Но рядовая погоня превращается в смертельную схватку…





Исходник: DVD9 R5
Тип релиза: DVDRip
Контейнер: AVI
Видео: 640x400 (16:10), 25 fps, XviD ~ 978 kbps avg, 0.153 bit/pixel
Аудио: 48 kHz, MP3 2.0, 128 kbps
Раздача от:
Общее
Полное имя : Nesluzhebnoe.zadanie.2004.DVDRip-745_[New-team]_by_AVP_Studio.avi
Формат : AVI
Формат/Информация : Audio Video Interleave
Размер файла : 745 Мбайт
Продолжительность : 1 ч. 33 м.
Общий поток : 1115 Кбит/сек
Программа кодирования : VirtualDubModRus 1.5.10.2 (build 2542/release)
Библиотека кодирования : VirtualDubMod build 2542/release
Видео
Идентификатор : 0
Формат : MPEG-4 Visual
Профиль формата : Advanced Simple@L5
Параметр BVOP формата : 1
Параметр QPel формата : Нет
Параметр GMC формата : Без точки перехода
Параметр матрицы формата : Выборочная
Идентификатор кодека : XVID
Идентификатор кодека/Подсказка : XviD
Продолжительность : 1 ч. 33 м.
Битрейт : 978 Кбит/сек
Ширина : 640 пикселей
Высота : 400 пикселей
Соотношение сторон : 16:10
Частота кадров : 25,000 кадров/сек
Цветовое пространство : YUV
Субдискретизация насыщенности : 4:2:0
Битовая глубина : 8 бит
Тип развёртки : Прогрессивная
Метод сжатия : С потерями
Бит/(Пиксели*Кадры) : 0.153
Размер потока : 653 Мбайт (88%)
Библиотека кодирования : XviD 73
Аудио
Идентификатор : 1
Формат : MPEG Audio
Версия формата : Version 1
Профиль формата : Layer 3
Идентификатор кодека : 55
Идентификатор кодека/Подсказка : MP3
Продолжительность : 1 ч. 33 м.
Вид битрейта : Постоянный
Битрейт : 128 Кбит/сек
Каналы : 2 канала
Частота : 48,0 КГц
Метод сжатия : С потерями
Размер потока : 85,5 Мбайт (11%)
Выравнивание : Соединение по промежуткам
Продолжительность промежутка : 40 мс. (1,00 видеокадр)
Время предзагрузки промежутка : 504 мс.
Библиотека кодирования : LAME3.99r
Настройки программы : -m s -V 4 -q 2 -lowpass 17 -b 128





   Похожие торренты   Торрент   Размер 
В этой теме нет новых непрочитанных сообщений. Неслужебное задание (2004) DVDRip-AVC от New-Team

69 | 15

1.46 ГБ

В этой теме нет новых непрочитанных сообщений. Неслужебное задание (2004) DVDRip от New-Team

55 | 11

1.46 ГБ

В этой теме нет новых непрочитанных сообщений. Неслужебное задание (2004) DVDRip

20 | 6

747.8 МБ

В этой теме нет новых непрочитанных сообщений. Неслужебное задание (2004) DVDRip от GeneralFilm

50 | 7

1.37 ГБ

В этой теме нет новых непрочитанных сообщений. Неслужебное задание (2004) DVDRip от SergV

21 | 8

1.47 ГБ

В этой теме нет новых непрочитанных сообщений. Неслужебное задание 2: Взрыв на рассвете (2004) DVDRip

73 | 19

1.46 ГБ

В этой теме нет новых непрочитанных сообщений. Неслужебное задание 2: Взрыв на рассвете (2005) DVDRip от New-Team

43 | 6

1.46 ГБ




Вы не можете начинать темы
Вы не можете отвечать на сообщения
Вы не можете редактировать свои сообщения
Вы не можете удалять свои сообщения
Вы не можете добавлять вложения

Перейти:  
Для Мосгорсуда, Роскомнадзора и рекламодателей: mosgorsud-torrent[собачка]yandex.ru
 Вход
ppkBB3cker v.2 © 2008-2014 @ PPK
[ Time : 0.038s | 16 Queries | GZIP : Off ]

cron