img image001 image001 image001 image001 image001 image001 image001 image001 image001 image001 image001 image001 image001 image001 image001

Planets Sun Sun Sun
Статистика раздачи
Автор: Nickolas3434 | Размер: 1.51 ГБ | Добавлен: 26 окт 2014
Раздают: 198    Качают: 15
Скачать торрент
Скачать торрент
Описание торрента

СообщениеДобавлено: 26 окт 2014 

Информация о фильме
Название: Игла
Год выхода: 1988
Жанр: Триллер, драма
Режиссер: Рашид Нугманов
В ролях: Виктор Цой, Марина Смирнова, Александр Баширов, Пётр Мамонов, Геннадий Люй, Рахимджан Абдыкадыров, Александр Конкс, Райхан Канатбаев, Айхан Чатаева, Владимир Даниленко, Григорий Эпштейн
О фильме:
Вернувшись в Алма-Ату, Моро не хочет, чтобы родители знали о его приезде, и в поисках временного пристанища вспоминает о девушке, которую он когда-то любил. Дина рада встрече, но Моро что-то настораживает в ней. Наблюдая за ее странными знакомыми, Моро понимает, что Дина стала наркоманкой. Как спасти девушку? Моро увозит ее к морю, где Дина начинает выздоравливать. Однако после возвращения в город все начинается сначала. Моро решает расправиться с поставщиками наркотиков...
Страна: СССР
Студия: Казахфильм
Продолжительность: 01:16:42
Файл
Формат: MKV
Качество: DVDRip-AVC
Видео: MPEG-4 AVC, 2375 Кбит/с, 656х528@720х528
Звук: AC3, 6 ch, 448 Кбит/с
Общее
Уникальный идентификатор : 235304056429246460184008493175244340606 (0xB105E9AF4FAC46DF8EC0BA634AD43D7E)
Полное имя : E:Igla.1988.x264.DVDRip(AVC).CherV.mkv
Формат : Matroska
Версия формата : Version 4 / Version 2
Размер файла : 1,51 Гбайт
Продолжительность : 1 ч. 16 м.
Общий поток : 2824 Кбит/сек
Название фильма : Игла (1988)
Дата кодирования : UTC 2014-10-25 11:31:01
Программа кодирования : mkvmerge v7.3.0 ('Nouages') 32bit built on Oct 22 2014 18:44:01
Библиотека кодирования : libebml v1.3.0 + libmatroska v1.4.1
DURATION : 01:16:42.208000000
NUMBER_OF_FRAMES : 143819
NUMBER_OF_BYTES : 257723648
_STATISTICS_WRITING_APP : mkvmerge v7.3.0 ('Nouages') 32bit built on Oct 22 2014 18:44:01
_STATISTICS_WRITING_DATE_UTC : 2014-10-25 11:31:01
_STATISTICS_TAGS : BPS DURATION NUMBER_OF_FRAMES NUMBER_OF_BYTES
Видео
Идентификатор : 1
Формат : AVC
Формат/Информация : Advanced Video Codec
Профиль формата : High@L4.1
Параметр CABAC формата : Да
Параметр ReFrames формата : 9 кадров
Идентификатор кодека : V_MPEG4/ISO/AVC
Продолжительность : 1 ч. 16 м.
Битрейт : 2375 Кбит/сек
Ширина : 656 пикселей
Высота : 528 пикселей
Соотношение сторон : 4:3
Режим частоты кадров : Постоянный
Частота кадров : 25,000 кадров/сек
Цветовое пространство : YUV
Субдискретизация насыщенности : 4:2:0
Битовая глубина : 8 бит
Тип развёртки : Прогрессивная
Бит/(Пиксели*Кадры) : 0.274
Размер потока : 1,24 Гбайт (82%)
Заголовок : Rip by CherV
Библиотека кодирования : x264 core 125 r2208 d9d2288
Настройки программы : cabac=1 / ref=9 / deblock=1:-3:-3 / analyse=0x3:0x113 / me=umh / subme=11 / psy=1 / psy_rd=1.00:0.20 / mixed_ref=1 / me_range=32 / chroma_me=1 / trellis=2 / 8x8dct=1 / cqm=0 / deadzone=21,11 / fast_pskip=0 / chroma_qp_offset=-3 / threads=3 / lookahead_threads=1 / sliced_threads=0 / nr=0 / decimate=0 / interlaced=0 / bluray_compat=0 / constrained_intra=0 / bframes=12 / b_pyramid=2 / b_adapt=2 / b_bias=0 / direct=3 / weightb=1 / open_gop=0 / weightp=2 / keyint=250 / keyint_min=25 / scenecut=40 / intra_refresh=0 / rc_lookahead=40 / rc=2pass / mbtree=0 / bitrate=2375 / ratetol=1.0 / qcomp=0.60 / qpmin=0 / qpmax=69 / qpstep=4 / cplxblur=20.0 / qblur=0.5 / vbv_maxrate=50000 / vbv_bufsize=50000 / nal_hrd=none / ip_ratio=1.40 / pb_ratio=1.30 / aq=1:1.00
Язык : Russian
Default : Да
Forced : Да
Аудио
Идентификатор : 2
Формат : AC-3
Формат/Информация : Audio Coding 3
Расширение режима : CM (complete main)
Параметр Endianness формата : Big
Идентификатор кодека : A_AC3
Продолжительность : 1 ч. 16 м.
Вид битрейта : Постоянный
Битрейт : 448 Кбит/сек
Каналы : 6 каналов
Расположение каналов : Front: L C R, Side: L R, LFE
Частота : 48,0 КГц
Битовая глубина : 16 бит
Метод сжатия : С потерями
Размер потока : 246 Мбайт (16%)
Язык : Russian
Default : Да
Forced : Да
Меню
00:00:00.000 : :Chapter 01
00:11:47.040 : :Chapter 02
00:23:46.080 : :Chapter 03
00:34:08.640 : :Chapter 04
00:51:51.360 : :Chapter 05
01:06:10.560 : :Chapter 06



Релиз от: CherV



   Похожие торренты   Торрент   Размер 
В этой теме нет новых непрочитанных сообщений. Игла (1988) DVDRip

7 | 3

699.46 МБ

В этой теме нет новых непрочитанных сообщений. Игла (1988) DVDRip

72 | 9

1.46 ГБ

В этой теме нет новых непрочитанных сообщений. Игла (1988) DVDRip от New-Team

100 | 7

741.86 МБ

В этой теме нет новых непрочитанных сообщений. Игла (1988) DVDRip от New-Team

248 | 26

1.45 ГБ

В этой теме нет новых непрочитанных сообщений. Игла (1988) DVDRip-AVC от ExKinoRay | Реставрация

88 | 0

746.04 МБ

В этой теме нет новых непрочитанных сообщений. Игла (1988) DVD5

101 | 2

4.19 ГБ

В этой теме нет новых непрочитанных сообщений. БИ-2 - Три концерта (2014) DVDRip от CherV

303 | 42

5.07 ГБ




Вы не можете начинать темы
Вы не можете отвечать на сообщения
Вы не можете редактировать свои сообщения
Вы не можете удалять свои сообщения
Вы не можете добавлять вложения

Перейти:  
Для Мосгорсуда, Роскомнадзора и рекламодателей: mosgorsud-torrent[собачка]yandex.ru
 Вход
ppkBB3cker v.2 © 2008-2014 @ PPK
[ Time : 0.053s | 16 Queries | GZIP : Off ]

Торрент трекер RUTOR.IN, Не можете зайти на rutor.org? Какой новый адрес рутор? Какое зеркало рутор? Не работает rutor.org и зеркала? Тогда наш торрент специально для вас. Rutor.in неофициальное зеркало rutor. В случае если у Вас заблокирован rutor или вдруг Вы не можете на него зайти, то Вы без труда сможете скачать бесплатно и без рекламы последние новинки кино, игр, сериалов и прочего у нас, на Rutor.in. Не нужно использовать прокси, чтобы зайти на рутор, достаточно воспользоваться нашим ресурсом. Все новые фильмы, игры, сериалы, книги и музыка за 2013 и 2014 годы через торрент бесплатно. Скачивайте фильмы в хорошем качестве, игры для пк, xbox, playstation без регистрации. У нас вы найдете новые Зарубежные сериалы и Русские сериалы 2013, 2014, 2015 годов. Оставайтесь с нами, качайте любимые фильмы, игры, сериалы, книги и музыку.
cron