img image001 image001 image001 image001 image001 image001 image001 image001 image001 image001 image001 image001 image001 image001 image001

Planets Sun Sun Sun
Статистика раздачи
Автор: Nickolas3434 | Размер: 1.46 ГБ | Добавлен: 26 окт 2014
Раздают: 225    Качают: 10
Скачать торрент
Скачать торрент
Описание торрента

СообщениеДобавлено: 26 окт 2014 

Дед 005
«Спасение влюбленного внука. Миссия выполнима»


Страна: Россия
Студия: СинеПро
Жанр: комедия
Год выпуска: 2013
Продолжительность: 01:28:45
Перевод: Не требуется (русский)
Cубтитры: Нет
Режиссер:
Аркадий Григорян, Мгер Мкртчян
В ролях:
Сергей Шакуров, Андрис Булис, Вахтанг Кикабидзе, Анна Попова, Грант Тохатян, Олеся Судзиловская, Константин Юшкевич, Дмитрий Марьянов, Сергей Степанченко, Татьяна Лютаева
Описание:
Гений разведки Олег Степанович, полковник в отставке, тоскует без работы, коротая дни в парке и у телевизора… А в это время его внук Андрей, начинающий дипломат, попадает в затруднительную романтическую ситуацию. Дед летит к внуку в Ереван, где встречает своего старого товарища, кардиолога Ираклия, который тут же включается в «сердечное» дело. Операция по решению любовных проблем внука получает название «Дед 005», причём методы русского чекиста и грузинского врача иногда шокируют окружающих. Но только настоящая любовь способна взять верх над мастерством виртуозов контрразведки.

Релиз:
Автор рипа: Stalker oK
Сэмпл: multi-up
Качество видео: DVDRip-AVC [DVD5]
Формат видео: MKV
Видео кодек: AVC
Аудио кодек: AC3
Видео: 1910 Кбит/сек, 704@1001*576 (16:9), в 25,000 кадр/сек, AVC
Аудио: Russian, 448 Кбит/сек, 48,0 КГц, 16 бит, 6 канала(ов), AC-3
Общее
Уникальный идентификатор : 230681377316319795992783371148019468303 (0xAD8B9E0209C1831D997FD0C7DA5D880F)
Полное имя : K:TEMPДед 005Ded.005.2013.DVDRip-AVC.1.45Gb...stalkerok.new-team.mkv
Формат : Matroska
Размер файла : 1,46 Гбайт
Продолжительность : 1 ч. 28 м.
Общий поток : 2359 Кбит/сек
Название фильма : Дед 005 (2013) (New-Team) (Rip by Stalker oK)
Дата кодирования : UTC 2014-10-26 08:45:51
Программа кодирования : mkvmerge v6.1.0 ('Old Devil') built on Mar 4 2013 09:10:42
Библиотека кодирования : libebml v1.3.0 + libmatroska v1.4.0
Видео
Идентификатор : 1
Формат : AVC
Формат/Информация : Advanced Video Codec
Профиль формата : High@L4.1
Параметр CABAC формата : Да
Параметр ReFrames формата : 11 кадры
Идентификатор кодека : V_MPEG4/ISO/AVC
Продолжительность : 1 ч. 28 м.
Битрейт : 1910 Кбит/сек
Ширина : 704 пикс.
Высота : 576 пикс.
Соотношение сторон : 16:9
Частота кадров : 25,000 кадр/сек
Стандарт вещания : PAL
Цветовое пространство : YUV
Подвыборка цветности : 4:2:0
Битовая глубина : 8 бит
Тип развёртки : Прогрессивная
Бит/(Пиксели*Кадры) : 0.188
Размер потока : 1,16 Гбайт (79%)
Библиотека кодирования : x264 core 142 r2431 ac76440
Настройки программы : cabac=1 / ref=11 / deblock=1:-2:-1 / analyse=0x3:0x133 / me=umh / subme=11 / psy=1 / psy_rd=1.00:0.15 / mixed_ref=1 / me_range=48 / chroma_me=1 / trellis=2 / 8x8dct=1 / cqm=0 / deadzone=21,11 / fast_pskip=0 / chroma_qp_offset=-3 / threads=12 / lookahead_threads=3 / sliced_threads=0 / nr=0 / decimate=0 / interlaced=0 / bluray_compat=0 / constrained_intra=0 / bframes=14 / b_pyramid=2 / b_adapt=2 / b_bias=0 / direct=3 / weightb=1 / open_gop=0 / weightp=2 / keyint=250 / keyint_min=25 / scenecut=40 / intra_refresh=0 / rc_lookahead=80 / rc=2pass / mbtree=0 / bitrate=1910 / ratetol=1.0 / qcomp=0.70 / qpmin=0 / qpmax=69 / qpstep=4 / cplxblur=20.0 / qblur=0.5 / vbv_maxrate=20000 / vbv_bufsize=25000 / nal_hrd=none / filler=0 / ip_ratio=1.30 / pb_ratio=1.20 / aq=2:0.90
Аудио
Идентификатор : 2
Формат : AC-3
Формат/Информация : Audio Coding 3
Расширение режима : CM (complete main)
Идентификатор кодека : A_AC3
Продолжительность : 1 ч. 28 м.
Вид битрейта : Постоянный
Битрейт : 448 Кбит/сек
Канал(ы) : 6 канала(ов)
Расположение каналов : Front: L C R, Side: L R, LFE
Частота : 48,0 КГц
Битовая глубина : 16 бит
Метод сжатия : С потерями
Размер потока : 284 Мбайт (19%)
Язык : Russian





   Похожие торренты   Торрент   Размер 
В этой теме нет новых непрочитанных сообщений. Дед 005 (2013) DVDRip-AVC от New-Team | Лицензия

75 | 7

743.11 МБ

В этой теме нет новых непрочитанных сообщений. Агент [01-16 из 16] (2013) DVDRip-AVC от New-Team | лицензия

11 | 7

10.94 ГБ

В этой теме нет новых непрочитанных сообщений. Агент [01-16 из 16] (2013) DVDRip от New-Team | лицензия

249 | 54

10.94 ГБ

В этой теме нет новых непрочитанных сообщений. Романовы [01-08 из 08] (2013) DVDRip от New-Team | лицензия

1246 | 124

6.38 ГБ

В этой теме нет новых непрочитанных сообщений. Департамент [01-16 ИЗ 16] (2013) DVDRip-AVC от New-Team | лицензия

125 | 46

10.97 ГБ

В этой теме нет новых непрочитанных сообщений. Бомба [01-08 из 08] (2013) DVDRip от New-Team | лицензия

48 | 14

4.74 ГБ

В этой теме нет новых непрочитанных сообщений. Станица (2013) [01-12 из 12] DVDRip от New-Team | лицензия

204 | 102

8.74 ГБ




Вы не можете начинать темы
Вы не можете отвечать на сообщения
Вы не можете редактировать свои сообщения
Вы не можете удалять свои сообщения
Вы не можете добавлять вложения

Перейти:  
Для Мосгорсуда, Роскомнадзора и рекламодателей: mosgorsud-torrent[собачка]yandex.ru
 Вход
ppkBB3cker v.2 © 2008-2014 @ PPK
[ Time : 0.040s | 16 Queries | GZIP : Off ]

cron