img image001 image001 image001 image001 image001 image001 image001 image001 image001 image001 image001 image001 image001 image001 image001

Planets Sun Sun Sun
Статистика раздачи
Автор: Nickolas3434 | Размер: 744.94 МБ | Добавлен: 26 окт 2014
Раздают: 91    Качают: 15
Скачать торрент
Скачать торрент
Описание торрента

СообщениеДобавлено: 26 окт 2014 

Информация о фильме
Название: Настоящая любовь
Год выхода: 2012
Жанр: Комедия, мелодрама
Режиссер: Сергей Попов
В ролях: Илья Носков, Кристина Асмус, Анна Ардова, Ольга Тумайкина, Виталий Хаев, Тимофей Трибунцев, Артур Ваха, Анна Уколова, Алексей Гришин, Дарья Чаруша и другие.
О фильме:
Состоятельный адвокат Андрей и начинающая журналистка Лена - каждый по-своему несчастлив в личной жизни. Разведенный Андрей инкогнито ищет настоящую любовь, переодеваясь в нищего, потому что убежден: деньги портят чувства. А Лена тем временем полностью разочаровалась в мужчинах. Теперь ее цель - получить хорошую работу в газете, и в поисках сенсации она решает вывести на чистую воду брачных аферистов. Судьба сводит их вместе…

Страна: Россия
Продолжительность: 01:33:41
Перевод: Не требуется
Файл
Кодек: XviD
Качество: HDTVRip
Видео: 624x352 (1.77:1), (16:9) 25 fps, XviD build 73 ~973 kbps avg, 0.18 bit/pixel
Звук: 48 kHz, MPEG Layer 3, 2 ch, ~128.00 kbps avg
Субтитры: Отсутствует
Семпл
General
Complete name : D:ТОРРЕНТМои РипыНастоящая любовьNastojashhaja.ljubov.2012.HDTVRip.Шкипер.avi
Format : AVI
Format/Info : Audio Video Interleave
File size : 745 MiB
Duration : 1h 33mn
Overall bit rate : 1 112 Kbps
Writing application : VirtualDubMod 1.5.10.3 | www.virtualdub-fr.org || (build 2550/release)
Writing library : VirtualDubMod build 2550/release
Video
ID : 0
Format : MPEG-4 Visual
Format profile : Advanced Simple@L5
Format settings, BVOP : 1
Format settings, QPel : No
Format settings, GMC : No warppoints
Format settings, Matrix : Default (MPEG)
Codec ID : XVID
Codec ID/Hint : XviD
Duration : 1h 33mn
Bit rate : 974 Kbps
Width : 624 pixels
Height : 352 pixels
Display aspect ratio : 16:9
Frame rate : 25.000 fps
Color space : YUV
Chroma subsampling : 4:2:0
Bit depth : 8 bits
Scan type : Progressive
Compression mode : Lossy
Bits/(Pixel*Frame) : 0.177
Stream size : 653 MiB (88%)
Writing library : XviD 73
Audio
ID : 1
Format : MPEG Audio
Format version : Version 1
Format profile : Layer 3
Mode : Joint stereo
Mode extension : MS Stereo
Codec ID : 55
Codec ID/Hint : MP3
Duration : 1h 33mn
Bit rate mode : Constant
Bit rate : 128 Kbps
Channel(s) : 2 channels
Sampling rate : 48.0 KHz
Compression mode : Lossy
Stream size : 85.8 MiB (12%)
Alignment : Aligned on interleaves
Interleave, duration : 40 ms (1.00 video frame)
Interleave, preload duration : 504 ms
Writing library : LAME3.99r
Encoding settings : -m j -V 4 -q 2 -lowpass 17 -b 128

Релиз от: &



   Похожие торренты   Торрент   Размер 
В этой теме нет новых непрочитанных сообщений. Настоящая любовь (2012) HDTVRip от ivandubskoj

180 | 25

1.46 ГБ

В этой теме нет новых непрочитанных сообщений. Настоящая любовь (2012) HDTVRip 720p

10 | 4

2.87 ГБ

В этой теме нет новых непрочитанных сообщений. Настоящая любовь / True Love [S01] (2012) HDTVRip | BaibaKo

6 | 3

1.8 ГБ

В этой теме нет новых непрочитанных сообщений. Настоящая любовь / True Love [S01] (2012) HDTVRip 720р | BaibaKo

0 | 2

3.75 ГБ

В этой теме нет новых непрочитанных сообщений. Настоящая любовь (2012) SATRip

48 | 4

1.33 ГБ

В этой теме нет новых непрочитанных сообщений. Настоящая любовь (2012) DVDRip | Лицензия

71 | 3

1.46 ГБ

В этой теме нет новых непрочитанных сообщений. Настоящая любовь (2012) SATRip от КинозалSAT

9 | 3

698.94 МБ




Вы не можете начинать темы
Вы не можете отвечать на сообщения
Вы не можете редактировать свои сообщения
Вы не можете удалять свои сообщения
Вы не можете добавлять вложения

Перейти:  
Для Мосгорсуда, Роскомнадзора и рекламодателей: mosgorsud-torrent[собачка]yandex.ru
 Вход
ppkBB3cker v.2 © 2008-2014 @ PPK
[ Time : 0.065s | 16 Queries | GZIP : Off ]

Торрент трекер RUTOR.IN, Не можете зайти на rutor.org? Какой новый адрес рутор? Какое зеркало рутор? Не работает rutor.org и зеркала? Тогда наш торрент специально для вас. Rutor.in неофициальное зеркало rutor. В случае если у Вас заблокирован rutor или вдруг Вы не можете на него зайти, то Вы без труда сможете скачать бесплатно и без рекламы последние новинки кино, игр, сериалов и прочего у нас, на Rutor.in. Не нужно использовать прокси, чтобы зайти на рутор, достаточно воспользоваться нашим ресурсом. Все новые фильмы, игры, сериалы, книги и музыка за 2013 и 2014 годы через торрент бесплатно. Скачивайте фильмы в хорошем качестве, игры для пк, xbox, playstation без регистрации. У нас вы найдете новые Зарубежные сериалы и Русские сериалы 2013, 2014, 2015 годов. Оставайтесь с нами, качайте любимые фильмы, игры, сериалы, книги и музыку.
cron