img image001 image001 image001 image001 image001 image001 image001 image001 image001 image001 image001 image001 image001 image001 image001

Planets Sun Sun Sun
Статистика раздачи
Автор: Nickolas3434 | Размер: 2.66 ГБ | Добавлен: 28 окт 2014
Раздают: 2350    Качают: 150
Скачать торрент
Скачать торрент
Описание торрента

СообщениеДобавлено: 28 окт 2014 

Информация о фильме
Оригинальное название: Смешанные чувства
Год выхода: 2014
Жанр: Kомедия
Режиссер: Георгий Малков
В ролях: Александр Ревва, Павел Деревянко, Татьяна Космачева, Артем Сучков, Максим Коновалов, Эмиль Никогосян, Вадим Цаллати, Мария Сёмкина, Александр Булатов, Раиса Рязанова
О фильме:
Они настолько разные, что не должны были пересечься в обычной жизни. Фил — бывшая звезда 90-х, прославившийся в свое время одной единственной песней. Теперь он работает ди-джеем, завидует Олегу Газманову и не выносит ответственности. Петр — врач-карьерист, сухарь и педант. Записывает на диктофон свои планы на день, боится пригласить девушку на свидание и знать не знает кто такой Газманов. После электрошока они начинают испытывать чувства друг друга. Когда одному больно, то от боли вздрагивает и другой, когда одному из них страшно, то пугается и второй. Смеется один, непроизвольный смех у другого. Веселая жизнь и острые эмоции Фила рушат сначала системную размеренную работу Пети, а затем появляется проблема посерьезнее, когда вслед за Петей в его девушку влюбляется и Фил.

Страна: Россия
Студия: Enjoy Movies
Продолжительность: 01:24:55
Файл
Качество: DVB
Видео: MPEG-2, 3617 Кбит/с, 720x576@1024x576
Звук: Русский (АС3, 6 ch, 448 Кбит/с) / (MP2, 2 ch, 192 Кбит/с)
Семпл

Общее
Идентификатор : 11 (0xB)
Полное имя : Smeshannye.chuvstva.2014.DVB.MediaClub.ts
Формат : MPEG-TS
Размер файла : 2,66 Гбайт
Продолжительность : 1 ч. 24 м.
Режим общего битрейта : Переменный
Общий поток : 4486 Кбит/сек
Видео
Идентификатор : 327 (0x147)
Идентификатор меню : 11107 (0x2B63)
Формат : MPEG Video
Версия формата : Version 2
Профиль формата : Main@Main
Параметр BVOP формата : Да
Параметр матрицы формата : Выборочная
Параметр GOP формата : Variable
Идентификатор кодека : 2
Продолжительность : 1 ч. 24 м.
Вид битрейта : Переменный
Битрейт : 3617 Кбит/сек
Максимальный битрейт : 15,0 Мбит/сек
Ширина : 720 пикселей
Высота : 576 пикселей
Соотношение сторон : 16:9
Частота кадров : 25,000 кадров/сек
Стандарт вещания : PAL
Цветовое пространство : YUV
Субдискретизация насыщенности : 4:2:0
Битовая глубина : 8 бит
Тип развёртки : Чересстрочная
Порядок развёртки : Верхнее поле первое
Метод сжатия : С потерями
Бит/(Пиксели*Кадры) : 0.349
Размер потока : 2,15 Гбайт (81%)
Аудио #1
Идентификатор : 407 (0x197)
Идентификатор меню : 11107 (0x2B63)
Формат : MPEG Audio
Версия формата : Version 1
Профиль формата : Layer 2
Идентификатор кодека : 4
Продолжительность : 1 ч. 24 м.
Вид битрейта : Постоянный
Битрейт : 192 Кбит/сек
Каналы : 2 канала
Частота : 48,0 КГц
Метод сжатия : С потерями
Задержка видео : -381 мс.
Размер потока : 117 Мбайт (4%)
Язык : Russian
Язык, дополнительно : Clean effects
Аудио #2
Идентификатор : 427 (0x1AB)
Идентификатор меню : 11107 (0x2B63)
Формат : AC-3
Формат/Информация : Audio Coding 3
Расширение режима : CM (complete main)
Параметр Endianness формата : Big
Идентификатор кодека : 6
Продолжительность : 1 ч. 24 м.
Вид битрейта : Постоянный
Битрейт : 448 Кбит/сек
Каналы : 6 каналов
Расположение каналов : Front: L C R, Side: L R, LFE
Частота : 48,0 КГц
Битовая глубина : 16 бит
Метод сжатия : С потерями
Задержка видео : -370 мс.
Размер потока : 272 Мбайт (10%)
Язык : Russian
Язык, дополнительно : Clean effects
Меню
Идентификатор : 3307 (0xCEB)
Идентификатор меню : 11107 (0x2B63)
Продолжительность : 1 ч. 24 м.
Список : 327 (0x147) (MPEG Video) / 407 (0x197) (MPEG Audio, Russian) / 427 (0x1AB) (AC-3, Russian)
Язык : / Russian / Russian

Релиз от:



   Похожие торренты   Торрент   Размер 
В этой теме нет новых непрочитанных сообщений. Смешанные чувства (2014) DVD-5 | Лицензия

1644 | 125

4 ГБ

В этой теме нет новых непрочитанных сообщений. Смешанные чувства (2014) WEBRip

1132 | 79

699.78 МБ

В этой теме нет новых непрочитанных сообщений. Смешанные чувства (2014) WEBRip

9057 | 486

1.37 ГБ

В этой теме нет новых непрочитанных сообщений. Смешанные чувства (2014) WEB-DLRip

2114 | 116

1.37 ГБ

В этой теме нет новых непрочитанных сообщений. Смешанные чувства (2014) WEB-DLRip 720p

245 | 14

1.7 ГБ

В этой теме нет новых непрочитанных сообщений. Смешанные чувства (2014) DVDRip от ivandubskoj | Лицензия

1150 | 63

746.26 МБ

В этой теме нет новых непрочитанных сообщений. Смешанные чувства (2014) DVDRip от New-Team | лицензия

3307 | 183

1.46 ГБ




Вы не можете начинать темы
Вы не можете отвечать на сообщения
Вы не можете редактировать свои сообщения
Вы не можете удалять свои сообщения
Вы не можете добавлять вложения

Перейти:  
Для Мосгорсуда, Роскомнадзора и рекламодателей: mosgorsud-torrent[собачка]yandex.ru
 Вход
ppkBB3cker v.2 © 2008-2014 @ PPK
[ Time : 0.051s | 16 Queries | GZIP : Off ]

cron