img image001 image001 image001 image001 image001 image001 image001 image001 image001 image001 image001 image001 image001 image001 image001

Planets Sun Sun Sun
Статистика раздачи
Автор: Nickolas3434 | Размер: 745.93 МБ | Добавлен: 29 окт 2014
Раздают: 117    Качают: 5
Скачать торрент
Скачать торрент
Описание торрента

СообщениеДобавлено: 29 окт 2014 

Информация о фильме
Название: Совсем не простая история
Год выхода: 2013
Жанр: Драма, комедия
Режиссёр: Фёдор Попов
В ролях: Даниил Спиваковский, Алексей Ионов, Егор Баринов, Юлия Йенч, Евгения Крегжде, Дмитрий Калистратов, Анастасия Привалова, Виталий Отинов, Милена Давыдова, Роман Сеньков
О фильме:
В основе сюжета фильма жизненные пути двух людей — взрослого человека и подростка, пересекаются в тот момент, когда оба они стоят на краю жизни. Подросток случайно спасает жизнь взрослого. Взрослый видит, что парень, спасший его, почти след в след шагает по той же тропинке, которая его самого чуть не привела к гибели…

Страна: Россия
Студия: МК-ЦБ, Студия Стелла, Такт
Продолжительность: 01:48:48
Перевод: Не требуется
Файл
Кодек: XviD
Качество: SATRip
Видео: XviD, 822 Кбит/с, 624x272 (2.25:1), 25 кадр/с
Звук: Русский, MP3, 48000 Гц, 128 Кбит/с, 2 канала (Стерео)
Субтитры: Нет

General
Complete name : Sovsem.ne.prostaja.istorija.2013.SATRip.745MB.avi
Format : AVI
Format/Info : Audio Video Interleave
File size : 746 MiB
Duration : 1h 48mn
Overall bit rate : 958 Kbps
Movie name : Совсем не простая история (2013) SATRip
Genre : Драма, комедия
Recorded date : 28.10.2014
Writing application : VirtualDubMod 1.5.10.3 | www.virtualdub-fr.org || (build 2550/release)
Writing library : VirtualDubMod build 2550/release
Copyright : rip by ivandubskoj
Video
ID : 0
Format : MPEG-4 Visual
Format profile : Advanced Simple@L5
Format settings, BVOP : 2
Format settings, QPel : No
Format settings, GMC : No warppoints
Format settings, Matrix : Custom
Codec ID : XVID
Codec ID/Hint : XviD
Duration : 1h 48mn
Bit rate : 821 Kbps
Width : 624 pixels
Height : 272 pixels
Display aspect ratio : 2.25:1
Frame rate : 25.000 fps
Color space : YUV
Chroma subsampling : 4:2:0
Bit depth : 8 bits
Scan type : Progressive
Compression mode : Lossy
Bits/(Pixel*Frame) : 0.193
Stream size : 639 MiB (86%)
Writing library : XviD 73
Audio
ID : 1
Format : MPEG Audio
Format version : Version 1
Format profile : Layer 3
Codec ID : 55
Codec ID/Hint : MP3
Duration : 1h 48mn
Bit rate mode : Constant
Bit rate : 128 Kbps
Channel(s) : 2 channels
Sampling rate : 48.0 KHz
Compression mode : Lossy
Stream size : 99.6 MiB (13%)
Alignment : Aligned on interleaves
Interleave, duration : 40 ms (1.00 video frame)
Interleave, preload duration : 504 ms
Title : Russian
Writing library : LAME3.99r
Encoding settings : -m s -V 4 -q 0 -lowpass 17 -b 128



Автор рипа - ivandubskoj



   Похожие торренты   Торрент   Размер 
В этой теме нет новых непрочитанных сообщений. Совсем не простая история (2013) SATRip

599 | 31

1.37 ГБ

В этой теме нет новых непрочитанных сообщений. Нонна Мордюкова. Простая история (2015) SATRip от Files-x

47 | 5

640.18 МБ

В этой теме нет новых непрочитанных сообщений. Совсем не простая история (2013) DVB от MediaClub

87 | 12

1.79 ГБ

В этой теме нет новых непрочитанных сообщений. Простая история (2016) WEB-DL 720p

155 | 16

1.74 ГБ

В этой теме нет новых непрочитанных сообщений. Простая история (1960) DVDRip-AVC

212 | 18

1.59 ГБ

В этой теме нет новых непрочитанных сообщений. Простая история (2016) WEB-DLRip

10584 | 671

1.37 ГБ

В этой теме нет новых непрочитанных сообщений. Простая история (2016) WEB-DL 1080p

1421 | 68

2.64 ГБ




Вы не можете начинать темы
Вы не можете отвечать на сообщения
Вы не можете редактировать свои сообщения
Вы не можете удалять свои сообщения
Вы не можете добавлять вложения

Перейти:  
Для Мосгорсуда, Роскомнадзора и рекламодателей: mosgorsud-torrent[собачка]yandex.ru
 Вход
ppkBB3cker v.2 © 2008-2014 @ PPK
[ Time : 0.023s | 17 Queries | GZIP : Off ]

Торрент трекер RUTOR.IN, Не можете зайти на rutor.org? Какой новый адрес рутор? Какое зеркало рутор? Не работает rutor.org и зеркала? Тогда наш торрент специально для вас. Rutor.in неофициальное зеркало rutor. В случае если у Вас заблокирован rutor или вдруг Вы не можете на него зайти, то Вы без труда сможете скачать бесплатно и без рекламы последние новинки кино, игр, сериалов и прочего у нас, на Rutor.in. Не нужно использовать прокси, чтобы зайти на рутор, достаточно воспользоваться нашим ресурсом. Все новые фильмы, игры, сериалы, книги и музыка за 2013 и 2014 годы через торрент бесплатно. Скачивайте фильмы в хорошем качестве, игры для пк, xbox, playstation без регистрации. У нас вы найдете новые Зарубежные сериалы и Русские сериалы 2013, 2014, 2015 годов. Оставайтесь с нами, качайте любимые фильмы, игры, сериалы, книги и музыку.