img image001 image001 image001 image001 image001 image001 image001 image001 image001 image001 image001 image001 image001 image001 image001

Planets Sun Sun Sun
Статистика раздачи
Автор: Nickolas3434 | Размер: 744.25 МБ | Добавлен: 29 окт 2014
Раздают: 53    Качают: 10
Скачать торрент
Скачать торрент
Описание торрента

СообщениеДобавлено: 29 окт 2014 

Страна: СССР
Производство: Ленфильм
Жанр: комедия, военный
Год выпуска: 1945
Продолжительность: 01:23:28
Перевод: не требуется
Оригинальная аудиодорожка: русский
Cубтитры: нет
Режиссер: Семен Тимошенко
В ролях:
Николай Крючков, Василий Меркурьев, Василий Нещипленко, Алла Парфаньяк, Людмила Глазова, Тамара Алешина, Яков Гудкин, Фаина Раневская, Константин Скоробогатов, Семен Тимошенко...
Описание:
Три друга, летчики-офицеры, поклялись не любить до конца войны. Однако военная служба познакомила их с летчицами женской эскадрильи. И друзья один за другим начали сдавать свои позиции. После тяжелого ранения летчик Булочкин вынужден летать не на скоростном истребителе, а на «тихоходе» У-2. Привыкший к опасностям Булочкин с трудом привыкает к спокойной жизни в эскадрилье, где большинство летчиков — девушки. Но вскоре становится ясно, что на войне важны и «тихоходы»…






Исходник: BDRemux 1080p
Тип релиза: BDRip
Контейнер: AVI
Видео: 640x480 (4:3), 23,976 fps, XviD ~ 1109 kbps avg, 0.151 bit/pixel
Аудио: 48 kHz, MP3 2.0, 128 kbps
Раздача от:
Общее
Полное имя : Nebesny.tihohod.1945.DVDRip-745_[New-team]_by_AVP_Studio.avi
Формат : AVI
Формат/Информация : Audio Video Interleave
Размер файла : 744 Мбайт
Продолжительность : 1 ч. 23 м.
Общий поток : 1246 Кбит/сек
Программа кодирования : VirtualDubModRus 1.5.10.2 (build 2542/release)
Библиотека кодирования : VirtualDubMod build 2542/release
Видео
Идентификатор : 0
Формат : MPEG-4 Visual
Профиль формата : Advanced Simple@L5
Параметр BVOP формата : 1
Параметр QPel формата : Нет
Параметр GMC формата : Без точки перехода
Параметр матрицы формата : Выборочная
Идентификатор кодека : XVID
Идентификатор кодека/Подсказка : XviD
Продолжительность : 1 ч. 23 м.
Битрейт : 1109 Кбит/сек
Ширина : 640 пикселей
Высота : 480 пикселей
Соотношение сторон : 4:3
Частота кадров : 23,976 кадра/сек
Цветовое пространство : YUV
Субдискретизация насыщенности : 4:2:0
Битовая глубина : 8 бит
Тип развёртки : Прогрессивная
Метод сжатия : С потерями
Бит/(Пиксели*Кадры) : 0.151
Размер потока : 662 Мбайт (89%)
Библиотека кодирования : XviD 73
Аудио
Идентификатор : 1
Формат : MPEG Audio
Версия формата : Version 1
Профиль формата : Layer 3
Идентификатор кодека : 55
Идентификатор кодека/Подсказка : MP3
Продолжительность : 1 ч. 23 м.
Вид битрейта : Постоянный
Битрейт : 128 Кбит/сек
Каналы : 2 канала
Частота : 48,0 КГц
Метод сжатия : С потерями
Размер потока : 76,4 Мбайт (10%)
Выравнивание : Соединение по промежуткам
Продолжительность промежутка : 42 мс. (1,00 видеокадр)
Время предзагрузки промежутка : 504 мс.
Библиотека кодирования : LAME3.99r
Настройки программы : -m s -V 4 -q 2 -lowpass 17 -b 128





   Похожие торренты   Торрент   Размер 
В этой теме нет новых непрочитанных сообщений. Небесный тихоход (1945) BDRip от New-Team | Цветная версия

256 | 33

1.46 ГБ

В этой теме нет новых непрочитанных сообщений. Небесный тихоход (1945) BDRip-AVC от New-Team | Цветная версия

282 | 14

1.46 ГБ

В этой теме нет новых непрочитанных сообщений. Небесный тихоход (1945) BDRip 720p от New-Team | Цветная версия

114 | 20

2.19 ГБ

В этой теме нет новых непрочитанных сообщений. Небесный тихоход (1945) BDRip от HQCLUB | Цветная версия

140 | 13

1.45 ГБ

В этой теме нет новых непрочитанных сообщений. Небесный тихоход (1945) BDRip-AVC от MediaClub | Цветная версия

9 | 4

1.89 ГБ

В этой теме нет новых непрочитанных сообщений. Небесный тихоход (1945) BDRip 720p от MediaClub | Цветная версия

24 | 4

3.18 ГБ

В этой теме нет новых непрочитанных сообщений. Небесный тихоход (1945) BDRip 1080p от msltel | Цветная версия

214 | 20

6.57 ГБ




Вы не можете начинать темы
Вы не можете отвечать на сообщения
Вы не можете редактировать свои сообщения
Вы не можете удалять свои сообщения
Вы не можете добавлять вложения

Перейти:  
Для Мосгорсуда, Роскомнадзора и рекламодателей: mosgorsud-torrent[собачка]yandex.ru
 Вход
ppkBB3cker v.2 © 2008-2014 @ PPK
[ Time : 0.020s | 15 Queries | GZIP : Off ]
CGP output time : 0.013s | 5 Queries | GZIP : Off

Торрент трекер RUTOR.IN, Не можете зайти на rutor.org? Какой новый адрес рутор? Какое зеркало рутор? Не работает rutor.org и зеркала? Тогда наш торрент специально для вас. Rutor.in неофициальное зеркало rutor. В случае если у Вас заблокирован rutor или вдруг Вы не можете на него зайти, то Вы без труда сможете скачать бесплатно и без рекламы последние новинки кино, игр, сериалов и прочего у нас, на Rutor.in. Не нужно использовать прокси, чтобы зайти на рутор, достаточно воспользоваться нашим ресурсом. Все новые фильмы, игры, сериалы, книги и музыка за 2013 и 2014 годы через торрент бесплатно. Скачивайте фильмы в хорошем качестве, игры для пк, xbox, playstation без регистрации. У нас вы найдете новые Зарубежные сериалы и Русские сериалы 2013, 2014, 2015 годов. Оставайтесь с нами, качайте любимые фильмы, игры, сериалы, книги и музыку.