img image001 image001 image001 image001 image001 image001 image001 image001 image001 image001 image001 image001 image001 image001 image001

Planets Sun Sun Sun
Статистика раздачи
Автор: Nickolas3434 | Размер: 1.89 ГБ | Добавлен: 31 окт 2014
Раздают: 549    Качают: 18
Скачать торрент
Скачать торрент
Описание торрента

СообщениеДобавлено: 31 окт 2014 

Информация о фильме
Название: Беглецы
Год выхода: 2014
Жанр: триллер, приключения
Режиссер: Рустам Мосафир
В ролях: Пётр Фёдоров, Елизавета Боярская, Валерий Гришко, Сергей Цепов, Александр Самойлов, Ерик Жолжаксынов, Кирилл Анисимов, Юрис Лауциньш, Сейдулла Молдаханов, Гульнур Кожахметова
О фильме: Россия, императорские времена. Павла преследуют охотники за головами, которые его должны взять живым либо мертвым и им без особой разницы, погибнет мужчина или нет. Герой добирается до тайги и знакомится с молодой девушкой, которая соглашается стать его проводником. Теперь жизнь молодой девушки Усти также в опасности. Герои либо погибнут, либо спасутся…
В киноленте «Беглецы» вы увидите настоящую охоту на живых людей. Тут не будет места для жалости и сострадания, одной стороне необходимо любой ценой спастись, а преследователям нужно любой ценой догнать беглецов. В итоге победит сильнейший…

Выпущено: Россия, Казахстан
Продолжительность: 01:28:15
Озвучивание: Оригинальное [iTunes]
Файл
Качество: WEB-DLRip (AVC)
Видео: MPEG-4 AVC, 2676 Кбит/с, 1024x576
Аудио: AC3, 6 ch, 384 Кбит/с
General
Unique ID : 242925977604192810128872070423601528146 (0xB6C1D769833F4A7F8BFFF2808224BD52)
Complete name : C:Begletcy.2014.O.WEB-DLRip.AVC.ExKinoRay.mkv
Format : Matroska
Format version : Version 2
File size : 1.89 GiB
Duration : 1h 28mn
Overall bit rate : 3 060 Kbps
Movie name : Беглецы 2014 from ExKinoRay
Encoded date : UTC 2014-10-30 06:12:28
Writing application : mkvmerge v4.9.1 ('Ich will') built on Jul 11 2011 23:53:15
Writing library : libebml v1.2.1 + libmatroska v1.1.1
Video
ID : 1
Format : AVC
Format/Info : Advanced Video Codec
Format profile : High@L4.1
Format settings, CABAC : Yes
Format settings, ReFrames : 9 frames
Codec ID : V_MPEG4/ISO/AVC
Duration : 1h 28mn
Bit rate : 2 676 Kbps
Width : 1 024 pixels
Height : 576 pixels
Display aspect ratio : 16:9
Frame rate mode : Constant
Frame rate : 25.000 fps
Color space : YUV
Chroma subsampling : 4:2:0
Bit depth : 8 bits
Scan type : Progressive
Bits/(Pixel*Frame) : 0.181
Stream size : 1.61 GiB (85%)
Title : Enigma
Writing library : x264 core 133 r2334 a3ac64b
Encoding settings : cabac=1 / ref=9 / deblock=1:-2:-2 / analyse=0x3:0x113 / me=umh / subme=11 / psy=1 / psy_rd=1.00:0.15 / mixed_ref=1 / me_range=32 / chroma_me=1 / trellis=2 / 8x8dct=1 / cqm=0 / deadzone=21,11 / fast_pskip=0 / chroma_qp_offset=-3 / threads=12 / lookahead_threads=2 / sliced_threads=0 / nr=0 / decimate=0 / interlaced=0 / bluray_compat=0 / constrained_intra=0 / bframes=9 / b_pyramid=2 / b_adapt=2 / b_bias=0 / direct=3 / weightb=1 / open_gop=0 / weightp=2 / keyint=250 / keyint_min=25 / scenecut=40 / intra_refresh=0 / rc=2pass / mbtree=0 / bitrate=2676 / ratetol=1.0 / qcomp=0.60 / qpmin=0 / qpmax=69 / qpstep=4 / cplxblur=20.0 / qblur=0.5 / ip_ratio=1.40 / pb_ratio=1.30 / aq=1:1.00
Default : Yes
Forced : No
Color primaries : BT.709
Transfer characteristics : BT.709
Matrix coefficients : BT.709
Audio
ID : 2
Format : AC-3
Format/Info : Audio Coding 3
Mode extension : CM (complete main)
Format settings, Endianness : Big
Codec ID : A_AC3
Duration : 1h 28mn
Bit rate mode : Constant
Bit rate : 384 Kbps
Channel(s) : 6 channels
Channel positions : Front: L C R, Side: L R, LFE
Sampling rate : 48.0 KHz
Bit depth : 16 bits
Compression mode : Lossy
Stream size : 242 MiB (13%)
Language : Russian
Default : Yes
Forced : No
Menu
00:00:00.000 : en:Глава 1
00:02:29.000 : en:Глава 2
00:10:09.000 : en:Глава 3
00:14:45.000 : en:Глава 4
00:17:54.000 : en:Глава 5
00:24:28.000 : en:Глава 6
00:28:03.000 : en:Глава 7
00:32:18.000 : en:Глава 8
00:36:33.000 : en:Глава 9
00:42:00.000 : en:Глава 10
00:48:02.000 : en:Глава 11
00:52:52.000 : en:Глава 12
00:57:53.000 : en:Глава 13
01:05:54.000 : en:Глава 14
01:11:37.000 : en:Глава 15
01:15:41.000 : en:Глава 16
01:21:38.000 : en:Глава 17



Релиз от:
Автор релиза:



   Похожие торренты   Торрент   Размер 
В этой теме нет новых непрочитанных сообщений. Беглецы (2014) WEB-DLRip 1080p

951 | 88

3.35 ГБ

В этой теме нет новых непрочитанных сообщений. Беглецы (2014) WEB-DLRip от Scarabey | iTunes

561 | 20

747.82 МБ

В этой теме нет новых непрочитанных сообщений. Беглецы (2014) WEB-DLRip от Scarabey | iTunes

626 | 41

1.45 ГБ

В этой теме нет новых непрочитанных сообщений. Беглецы / Les fugitifs (1986) DVDRip от ExKinoRay

81 | 5

1.43 ГБ

В этой теме нет новых непрочитанных сообщений. Беглецы (2014) WEB-DL 720p

990 | 35

2.86 ГБ

В этой теме нет новых непрочитанных сообщений. Беглецы (2014) DVD9

133 | 18

4.97 ГБ

В этой теме нет новых непрочитанных сообщений. Беглецы (2014) DVDRip | Лицензия

7881 | 387

1.37 ГБ




Вы не можете начинать темы
Вы не можете отвечать на сообщения
Вы не можете редактировать свои сообщения
Вы не можете удалять свои сообщения
Вы не можете добавлять вложения

Перейти:  
Для Мосгорсуда, Роскомнадзора и рекламодателей: mosgorsud-torrent[собачка]yandex.ru
 Вход
ppkBB3cker v.2 © 2008-2014 @ PPK
[ Time : 0.043s | 15 Queries | GZIP : Off ]

Торрент трекер RUTOR.IN, Не можете зайти на rutor.org? Какой новый адрес рутор? Какое зеркало рутор? Не работает rutor.org и зеркала? Тогда наш торрент специально для вас. Rutor.in неофициальное зеркало rutor. В случае если у Вас заблокирован rutor или вдруг Вы не можете на него зайти, то Вы без труда сможете скачать бесплатно и без рекламы последние новинки кино, игр, сериалов и прочего у нас, на Rutor.in. Не нужно использовать прокси, чтобы зайти на рутор, достаточно воспользоваться нашим ресурсом. Все новые фильмы, игры, сериалы, книги и музыка за 2013 и 2014 годы через торрент бесплатно. Скачивайте фильмы в хорошем качестве, игры для пк, xbox, playstation без регистрации. У нас вы найдете новые Зарубежные сериалы и Русские сериалы 2013, 2014, 2015 годов. Оставайтесь с нами, качайте любимые фильмы, игры, сериалы, книги и музыку.