img image001 image001 image001 image001 image001 image001 image001 image001 image001 image001 image001 image001 image001 image001 image001

Planets Sun Sun Sun
Статистика раздачи
Автор: Nickolas3434 | Размер: 2.91 ГБ | Добавлен: 31 окт 2014
Раздают: 81    Качают: 12
Скачать торрент
Скачать торрент
Описание торрента

СообщениеДобавлено: 31 окт 2014 

Информация о фильме
Оригинальное название: Агония
Год выхода: 1981
Жанр: драма, биография, история
Режиссер: Элем Климов
В ролях: Алексей Петренко, Анатолий Ромашин, Велта Лине, Алиса Фрейндлих, Леонид Броневой, Михаил Данилов, Борис Иванов, Александр Романцов, Юрий Катин-Ярцев, Павел Панков, Нелли Пшенная, Михаил Светин, Владимир Осенев, Алла Майкова, Сергей Мучеников, Александр Павлов, Петр Аржанов, Аркадий Аркадьев, Байтен Омаров, Афанасий Тришкин, Валентина Талызина, Галина Никулина, Сергей Свистунов, Иван Пальму, Овсей Каган, Сергей Голованов, Сергей Карнович-Валуа, Анатолий Солоницын, Лев Лемке, Алексей Ванин, Анатолий Равикович, Лариса Шепитько, Олег Фёдоров, Александр Калягин (текст от автора)
О фильме:
1916 год. Россия уже третий год ведет войну, которой не видно конца, процветают полицейский произвол, голод и разруха. И всё это - на фоне царящей при дворе роскоши и коррупции, когда агонизирующая власть еще надеется справиться с "бунтовщиками". Российская империя в критическом положении. На престоле - Николай II. По улицам Петрограда маршируют тысячи недовольных своей участью пролетариев. Армия проигрывает одно сражение за другим. Рубль дешевеет на глазах. Но высшему петербургскому свету нет дела до таких мелочей. Они с увлечением вертят столы, разговаривают с дýхами и посещают салоны модного бурятского лекаря Джамсарана Бадмаева. Столицу лихорадит. Все только и говорят, что о загадочном сибирском мужике Гришке Распутине, который умеет творить чудеса. А более всего в чуде нуждается императорская семья...

Страна: СССР
Студия: Мосфильм
Продолжительность: 01:12:46 + 01:09:18 (двухсерийный)
Перевод: не требуется
Файл
Кодек: h264 AVC
Качество: DVDRip-AVC
Видео: High@L4.1; 720х336; 25 fps, ~2400 Kbps
Звук: AC3; 16 bit 48 Khz; 6ch 448 Kbps;
Субтитры: нет
General
Unique ID : 191850347945430299654133030480119916224 (0x905508725AEC879BA6695C368C30E6C0)
Complete name : F:FILMSАгония.(1981).DVDRip-AVC.[-=DoMiNo=-]\01_Серия.mkv
Format : Matroska
Format version : Version 2
File size : 1.46 GiB
Duration : 1h 12mn
Overall bit rate : 2 863 Kbps
Encoded date : UTC 2014-10-30 01:06:32
Writing application : mkvmerge v6.1.0 ('Old Devil') built on Mar 4 2013 09:10:42
Writing library : libebml v1.3.0 + libmatroska v1.4.0
Video
ID : 1
Format : AVC
Format/Info : Advanced Video Codec
Format profile : High@L4.1
Format settings, CABAC : Yes
Format settings, ReFrames : 12 frames
Codec ID : V_MPEG4/ISO/AVC
Duration : 1h 12mn
Bit rate : 2 412 Kbps
Width : 720 pixels
Height : 336 pixels
Display aspect ratio : 2.143
Frame rate mode : Constant
Frame rate : 25.000 fps
Color space : YUV
Chroma subsampling : 4:2:0
Bit depth : 8 bits
Scan type : Progressive
Bits/(Pixel*Frame) : 0.399
Stream size : 1.20 GiB (82%)
Writing library : x264 core 130 r2273 b3065e6
Encoding settings : cabac=1 / ref=12 / deblock=1:-3:-3 / analyse=0x3:0x133 / me=esa / subme=11 / psy=1 / psy_rd=1.00:0.50 / mixed_ref=1 / me_range=48 / chroma_me=1 / trellis=2 / 8x8dct=1 / cqm=0 / deadzone=21,11 / fast_pskip=0 / chroma_qp_offset=-3 / threads=12 / lookahead_threads=4 / sliced_threads=0 / slices=4 / nr=0 / decimate=0 / interlaced=0 / bluray_compat=0 / constrained_intra=0 / bframes=12 / b_pyramid=2 / b_adapt=2 / b_bias=0 / direct=3 / weightb=1 / open_gop=0 / weightp=2 / keyint=250 / keyint_min=23 / scenecut=40 / intra_refresh=0 / rc_lookahead=50 / rc=2pass / mbtree=1 / bitrate=2412 / ratetol=1.0 / qcomp=0.70 / qpmin=0 / qpmax=69 / qpstep=4 / cplxblur=20.0 / qblur=0.5 / ip_ratio=1.40 / aq=1:1.00
Default : Yes
Forced : No
Audio
ID : 2
Format : AC-3
Format/Info : Audio Coding 3
Mode extension : CM (complete main)
Format settings, Endianness : Big
Codec ID : A_AC3
Duration : 1h 12mn
Bit rate mode : Constant
Bit rate : 448 Kbps
Channel(s) : 6 channels
Channel positions : Front: L C R, Side: L R, LFE
Sampling rate : 48.0 KHz
Bit depth : 16 bits
Compression mode : Lossy
Stream size : 233 MiB (16%)
Default : Yes
Forced : No








   Похожие торренты   Торрент   Размер 
В этой теме нет новых непрочитанных сообщений. Агония (1981) DVDRip-AVC

12 | 7

2.91 ГБ

В этой теме нет новых непрочитанных сообщений. Агония (1981) DVDRip

70 | 16

1.65 ГБ

В этой теме нет новых непрочитанных сообщений. Агония (1981) DVDRip-AVC от ExKinoRay

109 | 4

2.88 ГБ

В этой теме нет новых непрочитанных сообщений. Агония страха [1-12 из 12] (2007) DVDRip от ExKinoRay

120 | 13

5.05 ГБ

В этой теме нет новых непрочитанных сообщений. S.T.A.L.K.E.R - Агония совести (2009) MP3

17 | 3

38.15 МБ

В этой теме нет новых непрочитанных сообщений. Украинская агония. Скрытая война (2015) SATRip от New-Team

91 | 7

745.23 МБ

В этой теме нет новых непрочитанных сообщений. Украинская агония. Скрытая война (2015) SATRip-AVC от New-Team

189 | 22

744.37 МБ




Вы не можете начинать темы
Вы не можете отвечать на сообщения
Вы не можете редактировать свои сообщения
Вы не можете удалять свои сообщения
Вы не можете добавлять вложения

Перейти:  
Для Мосгорсуда, Роскомнадзора и рекламодателей: mosgorsud-torrent[собачка]yandex.ru
 Вход
ppkBB3cker v.2 © 2008-2014 @ PPK
[ Time : 0.030s | 15 Queries | GZIP : Off ]

Торрент трекер RUTOR.IN, Не можете зайти на rutor.org? Какой новый адрес рутор? Какое зеркало рутор? Не работает rutor.org и зеркала? Тогда наш торрент специально для вас. Rutor.in неофициальное зеркало rutor. В случае если у Вас заблокирован rutor или вдруг Вы не можете на него зайти, то Вы без труда сможете скачать бесплатно и без рекламы последние новинки кино, игр, сериалов и прочего у нас, на Rutor.in. Не нужно использовать прокси, чтобы зайти на рутор, достаточно воспользоваться нашим ресурсом. Все новые фильмы, игры, сериалы, книги и музыка за 2013 и 2014 годы через торрент бесплатно. Скачивайте фильмы в хорошем качестве, игры для пк, xbox, playstation без регистрации. У нас вы найдете новые Зарубежные сериалы и Русские сериалы 2013, 2014, 2015 годов. Оставайтесь с нами, качайте любимые фильмы, игры, сериалы, книги и музыку.