img image001 image001 image001 image001 image001 image001 image001 image001 image001 image001 image001 image001 image001 image001 image001

Planets Sun Sun Sun
Статистика раздачи
Автор: Nickolas3434 | Размер: 3.66 ГБ | Добавлен: 31 окт 2014
Раздают: 90    Качают: 7
Скачать торрент
Скачать торрент
Описание торрента

СообщениеДобавлено: 31 окт 2014 

Информация о фильме
Название: Котёнок
Год выхода: 1996
Жанр: Драма, семейный, детский
Режиссер: Иван Попов
В ролях: Андрей Кузнецов, Людмила Аринина, Алексей Войтюк, Татьяна Грауз, Мария Попова, Александр Попов, Александр Чургин, Александр Песков, Олег Вершинин, Андрей Звягинцев
О фильме:
Девочке на птичьем рынке купили котенка, и он стал любимцем в семье музыканта. Но случайно Тиграша, так его назвали, выпал из окна и попал на брезентовую крышу «Газели». В результате путешествия по предновогодней Москве Тиграша уехал далеко от своего дома. Ему повезло — он попал в руки одинокого доброго человека, уже приютившего много кошек в своей комнатушке.

Страна: Росиия
Студия: Мосфильм, киностудия "КРУГ"
Продолжительность: 01:20:33
Перевод: Не требуется
Файл
Кодек: MPEG2
Качество: DVD-5
Видео: PAL, MPEG2, 720x576 (4:3), VBR, 6211 Кбит/с
Звук: Русский, Dolby AC3, 48000 Гц, 192 Кбит/с, 2 канала (Стерео)
Субтитры: Нет

Title: Kotjonok.1996.DVD-5
Size: 3.66 Gb ( 3 842 422,00 KBytes ) - DVD-5
Enabled regions: 1, 2, 3, 4, 5, 6, 7, 8
VTS_01 :
Play Length: 01:20:32+00:00:10
Video: PAL 4:3 (720x576) VBR
Audio:
English (Dolby AC3, 2 ch)
* Menus Information *
VIDEO_TS Menu
Video:
NTSC 4:3 (720x480) VBR
Auto Pan&Scan, Auto Letterboxed
English Language Unit :
Title Menu
VTS_01 Menu
Video:
PAL 4:3 (720x576) VBR
Audio:
Not specified (Dolby AC3, 2 ch)
English Language Unit :
Root Menu
Chapter (PTT) Menu
General
Complete name : VTS_01_1.VOB
Format : MPEG-PS
File size : 1 024 MiB
Duration : 21mn 54s
Overall bit rate : 6 533 Kbps
Video
ID : 224 (0xE0)
Format : MPEG Video
Format version : Version 2
Format profile : Main@Main
Format settings, BVOP : Yes
Format settings, Matrix : Custom
Duration : 21mn 54s
Bit rate mode : Variable
Bit rate : 6 211 Kbps
Width : 720 pixels
Height : 576 pixels
Display aspect ratio : 4:3
Frame rate : 25.000 fps
Standard : PAL
Color space : YUV
Chroma subsampling : 4:2:0
Bit depth : 8 bits
Compression mode : Lossy
Bits/(Pixel*Frame) : 0.599
Stream size : 974 MiB (95%)
Audio
ID : 189 (0xBD)-128 (0x80)
Format : AC-3
Format/Info : Audio Coding 3
Mode extension : CM (complete main)
Muxing mode : DVD-Video
Duration : 21mn 54s
Bit rate mode : Constant
Bit rate : 192 Kbps
Channel(s) : 2 channels
Channel positions : Front: L R
Sampling rate : 48.0 KHz
Bit depth : 16 bits
Compression mode : Lossy
Delay relative to video : -50ms
Stream size : 30.1 MiB (3%)
Menu



   Похожие торренты   Торрент   Размер 
В этой теме нет новых непрочитанных сообщений. Котенок (1996) Blu-Ray | JPN Transfer

11 | 16

21.28 ГБ

В этой теме нет новых непрочитанных сообщений. Котенок (1996) DVDRip

18 | 2

1.37 ГБ

В этой теме нет новых непрочитанных сообщений. Котёнок (1996) DVDRip

42 | 4

1.36 ГБ

В этой теме нет новых непрочитанных сообщений. Котенок (1996) BDRip от MegaPeer | JPN Transfer

77 | 11

1.46 ГБ

В этой теме нет новых непрочитанных сообщений. Котёнок (1996) BDRip-AVC от ExKinoRay | JPN Transfer

42 | 6

1.73 ГБ

В этой теме нет новых непрочитанных сообщений. Раз котенок, два котенок (2007) PC от Egorea1999

54 | 4

551.67 МБ

В этой теме нет новых непрочитанных сообщений. Котёнок Феликс спасает Рождество / Felix the Cat Saves Christmas (2004) DVD5 от Youtracker | P2 | Лицензия

0 | 2

3.47 ГБ




Вы не можете начинать темы
Вы не можете отвечать на сообщения
Вы не можете редактировать свои сообщения
Вы не можете удалять свои сообщения
Вы не можете добавлять вложения

Перейти:  
Для Мосгорсуда, Роскомнадзора и рекламодателей: mosgorsud-torrent[собачка]yandex.ru
 Вход
ppkBB3cker v.2 © 2008-2014 @ PPK
[ Time : 0.038s | 15 Queries | GZIP : On ]

Торрент трекер RUTOR.IN, Не можете зайти на rutor.org? Какой новый адрес рутор? Какое зеркало рутор? Не работает rutor.org и зеркала? Тогда наш торрент специально для вас. Rutor.in неофициальное зеркало rutor. В случае если у Вас заблокирован rutor или вдруг Вы не можете на него зайти, то Вы без труда сможете скачать бесплатно и без рекламы последние новинки кино, игр, сериалов и прочего у нас, на Rutor.in. Не нужно использовать прокси, чтобы зайти на рутор, достаточно воспользоваться нашим ресурсом. Все новые фильмы, игры, сериалы, книги и музыка за 2013 и 2014 годы через торрент бесплатно. Скачивайте фильмы в хорошем качестве, игры для пк, xbox, playstation без регистрации. У нас вы найдете новые Зарубежные сериалы и Русские сериалы 2013, 2014, 2015 годов. Оставайтесь с нами, качайте любимые фильмы, игры, сериалы, книги и музыку.