img image001 image001 image001 image001 image001 image001 image001 image001 image001 image001 image001 image001 image001 image001 image001

Planets Sun Sun Sun
Статистика раздачи
Автор: Nickolas3434 | Размер: 4.97 ГБ | Добавлен: 31 окт 2014
Раздают: 133    Качают: 18
Скачать торрент
Скачать торрент
Описание торрента

СообщениеДобавлено: 31 окт 2014 


Информация о фильме
Оригинальное название: Беглецы
Год выхода: 2014
Жанр: Приключения
Режиссер: Рустам Мосафир
В ролях: Пётр Фёдоров, Елизавета Боярская, Валерий Гришко, Сергей Цепов, Александр Самойлов, Ерик Жолжаксынов, Кирилл Анисимов, Юрис Лауциньш, Сейдулла Молдаханов, Гульнур Кожахметова
О фильме: Он — вне закона, по его пятам идут охотники за головами. Она знает тайгу, как свои пять пальцев, и только вместе они могут остаться в живых. Тайга общая: кто сильнее, тот и прав, а охота уже началась…

Страна: Россия, Казахстан
Студия: АРТЛАЙТ, Интерфест, Студия Казахфильм, Реал-Дакота
Продолжительность: 01:28:15
Язык: Русский
Файл
Кодек: MPEG-2
Качество: DVD-9
Видео: MPEG2, PAL, 16:9 (720x576) VBR, 25 кадр/с
Звук: Русский DD 5.1 (384Kbps)
Title:
Size: 4.97 Gb ( 5 216 092 KBytes ) - DVD-9
Enabled regions: 1, 2, 3, 4, 5, 6, 7, 8
VTS_01 :
Play Length: 01:28:15
Video: PAL 16:9 (720x576) VBR, Auto Pan&Scan
Audio:
Russian (Dolby AC3, 6 ch)
Menu Video:
PAL 4:3 (704x576) VBR
Menu English Language Unit :
Root Menu
Общее
Полное имя : D:ААА2БЕГЛЕЦЫVIDEO_TSVTS_01_1.VOB
Формат : MPEG-PS
Размер файла : 1001 Мбайт
Продолжительность : 18 м.
Режим общего битрейта : Переменный
Общий поток : 7556 Кбит/сек
Видео
Идентификатор : 224 (0xE0)
Формат : MPEG Video
Версия формата : Version 2
Профиль формата : Main@Main
Параметр BVOP формата : Да
Параметр матрицы формата : По умолчанию
Параметр GOP формата : M=3, N=13
Продолжительность : 18 м.
Вид битрейта : Переменный
Битрейт : 7022 Кбит/сек
Максимальный битрейт : 9008 Кбит/сек
Ширина : 720 пикселей
Высота : 576 пикселей
Соотношение сторон : 16:9
Частота кадров : 25,000 кадров/сек
Стандарт вещания : PAL
Цветовое пространство : YUV
Субдискретизация насыщенности : 4:2:0
Битовая глубина : 8 бит
Тип развёртки : Прогрессивная
Метод сжатия : С потерями
Бит/(Пиксели*Кадры) : 0.677
TimeCode_FirstFrame : 00:00:00:00
TimeCode_Source : Group of pictures header
Размер потока : 930 Мбайт (93%)
Аудио
Идентификатор : 189 (0xBD)-128 (0x80)
Формат : AC-3
Формат/Информация : Audio Coding 3
Расширение режима : CM (complete main)
Параметр Endianness формата : Big
Режим смешивания : DVD-Video
Продолжительность : 18 м.
Вид битрейта : Постоянный
Битрейт : 384 Кбит/сек
Каналы : 6 каналов
Расположение каналов : Front: L C R, Side: L R, LFE
Частота : 48,0 КГц
Битовая глубина : 16 бит
Метод сжатия : С потерями
Размер потока : 50,8 Мбайт (5%)
Меню



   Похожие торренты   Торрент   Размер 
В этой теме нет новых непрочитанных сообщений. Беглецы / Les Fugitifs (1986) DVD9

9 | 3

5.06 ГБ

В этой теме нет новых непрочитанных сообщений. Беглецы (2014) WEB-DL 720p

990 | 35

2.86 ГБ

В этой теме нет новых непрочитанных сообщений. Беглецы (2014) WEB-DLRip 1080p

951 | 88

3.35 ГБ

В этой теме нет новых непрочитанных сообщений. Беглецы (2014) DVDRip от MediaClub | КПК

235 | 15

399.82 МБ

В этой теме нет новых непрочитанных сообщений. Беглецы (2014) WEBRip-AVC от Rulya74

369 | 19

1.09 ГБ

В этой теме нет новых непрочитанных сообщений. Беглецы (2014) WEB-DLRip-AVC от ExKinoRay

549 | 18

1.89 ГБ

В этой теме нет новых непрочитанных сообщений. Беглецы (2014) DVDRip | Лицензия

7881 | 387

1.37 ГБ




Вы не можете начинать темы
Вы не можете отвечать на сообщения
Вы не можете редактировать свои сообщения
Вы не можете удалять свои сообщения
Вы не можете добавлять вложения

Перейти:  
Для Мосгорсуда, Роскомнадзора и рекламодателей: mosgorsud-torrent[собачка]yandex.ru
 Вход
ppkBB3cker v.2 © 2008-2014 @ PPK
[ Time : 0.042s | 15 Queries | GZIP : Off ]

cron