img image001 image001 image001 image001 image001 image001 image001 image001 image001 image001 image001 image001 image001 image001 image001

Planets Sun Sun Sun
Статистика раздачи
Автор: Nickolas3434 | Размер: 1.09 ГБ | Добавлен: 02 ноя 2014
Раздают: 1395    Качают: 96
Скачать торрент
Скачать торрент
Описание торрента

СообщениеДобавлено: 02 ноя 2014 

Выпускной (2014) WEBRip-AVC

Информация о фильме
Название: Выпускной
Оригинальное название: Оригинальное название (для иностранных фильмов)
Год выхода: 2014
Жанр: комедия
Режиссер: Всеволод Бродский
В ролях: Виктор Грудев, Кристина Исайкина, Сергей Походаев, Сергей Бурунов, Евгения Лютая, Константин Еремеев, Олеся Поташинская, Никита Павленко, Яна Енжаева, Тимофей Зайцев
О фильме: Ученики 11 «А» готовятся к Выпускному по-разному: рэперы снимают клип к альбому, главный дебошир закупает алкоголь, девственник готовится к первому сексу, а влюбленный Ромео собирается надеть обручальное кольцо своей Джульетте. Они мечтают о будущем и строят планы на жизнь без опеки родителей. «Эту ночь ты не забудешь никогда!» — однозначный настрой одноклассников. Но у родителей свои взгляды на праздник -«вечеринка которую вы ждали 10 лет» становится настоящей войной поколений. Школа превращается в место боя — сегодня будут расставлены все точки над «и».

Страна: Россия
Продолжительность: 01:32:22
Перевод: Оригинал (русский)
Файл
Кодек: x.264
Качество: WEBRip-AVC
Видео: 912x512 (16:9), 25.000 fps, 1499 kbps, 0.128 bit/pixel
Звук: 48 kHz, AC3 Dolby Digital, 2 ch, ~192.00 kbps

Общее
Уникальный идентификатор : 230766844312074590456381523328148286003 (0xAD9C13DB2F2F07B2B64296FD98ADAA33)
Полное имя : D:Vypusknoj.2014.WEBRip-AVC.mkv
Формат : Matroska
Версия формата : Version 4 / Version 2
Размер файла : 1,09 Гбайт
Продолжительность : 1 ч. 32 м.
Общий поток : 1693 Кбит/сек
Название фильма : Выпускной (2014) WEBRip-AVC rip by Rulya74
Дата кодирования : UTC 2014-11-01 18:50:01
Программа кодирования : mkvmerge v7.3.0 ('Nouages') 64bit built on Oct 22 2014 18:53:34
Библиотека кодирования : libebml v1.3.0 + libmatroska v1.4.1
Видео
Идентификатор : 1
Формат : AVC
Формат/Информация : Advanced Video Codec
Профиль формата : High@L4.1
Параметр CABAC формата : Да
Параметр ReFrames формата : 8 кадров
Идентификатор кодека : V_MPEG4/ISO/AVC
Продолжительность : 1 ч. 32 м.
Битрейт : 1499 Кбит/сек
Ширина : 912 пикселей
Высота : 512 пикселей
Соотношение сторон : 16:9
Режим частоты кадров : Постоянный
Частота кадров : 25,000 кадров/сек
Цветовое пространство : YUV
Субдискретизация насыщенности : 4:2:0
Битовая глубина : 8 бит
Тип развёртки : Прогрессивная
Бит/(Пиксели*Кадры) : 0.128
Размер потока : 969 Мбайт (87%)
Библиотека кодирования : x264 core 142 r2431 ac76440
Настройки программы : cabac=1 / ref=8 / deblock=1:-1:-1 / analyse=0x3:0x113 / me=umh / subme=9 / psy=1 / psy_rd=1.00:0.00 / mixed_ref=1 / me_range=48 / chroma_me=1 / trellis=2 / 8x8dct=1 / cqm=0 / deadzone=21,11 / fast_pskip=0 / chroma_qp_offset=-2 / threads=4 / lookahead_threads=1 / sliced_threads=0 / nr=0 / decimate=1 / interlaced=0 / bluray_compat=0 / constrained_intra=0 / bframes=5 / b_pyramid=2 / b_adapt=1 / b_bias=0 / direct=3 / weightb=1 / open_gop=0 / weightp=2 / keyint=250 / keyint_min=25 / scenecut=40 / intra_refresh=0 / rc_lookahead=40 / rc=2pass / mbtree=1 / bitrate=1499 / ratetol=1.0 / qcomp=0.60 / qpmin=0 / qpmax=69 / qpstep=4 / cplxblur=20.0 / qblur=0.5 / vbv_maxrate=62500 / vbv_bufsize=78125 / nal_hrd=none / filler=0 / ip_ratio=1.40 / aq=1:1.00
Default : Да
Forced : Нет
Аудио
Идентификатор : 2
Формат : AC-3
Формат/Информация : Audio Coding 3
Расширение режима : CM (complete main)
Параметр Endianness формата : Big
Идентификатор кодека : A_AC3
Продолжительность : 1 ч. 32 м.
Вид битрейта : Постоянный
Битрейт : 192 Кбит/сек
Каналы : 2 канала
Расположение каналов : Front: L R
Частота : 48,0 КГц
Битовая глубина : 16 бит
Метод сжатия : С потерями
Размер потока : 127 Мбайт (11%)
Заголовок : Оригинал
Язык : Russian
Default : Да
Forced : Нет



   Похожие торренты   Торрент   Размер 
В этой теме нет новых непрочитанных сообщений. Выпускной / Prom (2011) BDRip от Rulya74

282 | 13

1.46 ГБ

В этой теме нет новых непрочитанных сообщений. Худший выпускной / Самый ужасный выпускной / Worst. Prom. Ever. (2011) HDTVRip | P

84 | 8

1.37 ГБ

В этой теме нет новых непрочитанных сообщений. Выпускной бал в Кремле [эфир от 23.06] (2017) WEBRip 720p от Files-х

30 | 8

1.81 ГБ

В этой теме нет новых непрочитанных сообщений. Беглецы (2014) WEBRip-AVC от Rulya74

369 | 19

1.09 ГБ

В этой теме нет новых непрочитанных сообщений. OST - Выпускной (2014) MP3 от AGR - Generalfilm

523 | 52

120.04 МБ

В этой теме нет новых непрочитанных сообщений. Выпускной (2014) WEB-DL 720p

7346 | 322

2.81 ГБ

В этой теме нет новых непрочитанных сообщений. Выпускной (2014) WEB-DLRip

17395 | 981

1.37 ГБ




Вы не можете начинать темы
Вы не можете отвечать на сообщения
Вы не можете редактировать свои сообщения
Вы не можете удалять свои сообщения
Вы не можете добавлять вложения

Перейти:  
Для Мосгорсуда, Роскомнадзора и рекламодателей: mosgorsud-torrent[собачка]yandex.ru
 Вход
ppkBB3cker v.2 © 2008-2014 @ PPK
[ Time : 0.031s | 15 Queries | GZIP : Off ]

cron