img image001 image001 image001 image001 image001 image001 image001 image001 image001 image001 image001 image001 image001 image001 image001

Planets Sun Sun Sun
Статистика раздачи
Автор: Nickolas3434 | Размер: 1.09 ГБ | Добавлен: 03 ноя 2014
Раздают: 8    Качают: 7
Скачать торрент
Скачать торрент
Описание торрента

СообщениеДобавлено: 03 ноя 2014 


Страна: СССР / Студия Горького
Жанр: семейный
Год выпуска: 1979
Продолжительность: 1:13:09
Перевод: Не требуется
Cубтитры: нет
Оригинальная аудиодорожка: русский
Режиссер: Борис Рыцарев
В ролях: Людмила Дмитриева, Алексей Зайцев, Светлана Орлова, Артур Нищенкин, Владимир Никитин, Роман Филиппов, Николай Горлов, Сергей Тарасов, Александр Никифоров, Николай Аверюшкин...
Описание: Деревенская сиротка Дуняша с первого взгляда полюбила скомороха-озорника Митроху. Любовь оказалась несчастной, потому как Митроха оказался грубияном. За что и был и выгнан из деревни. Дуняше стало жаль Митроху, и она отправилась вслед за возлюбленным…

Качество: SATRip от xelon2006 / DVB
Формат: AVI
Видео: 704x528 (1.33:1), 25.000 fps, XviD, ~1 939 kbps avg, 0.209 bit/pix
Аудио: 48 kHz, Dolby AC3, 2 ch, 192 kbps, русский
Раздача от:
Complete name Возьми меня с собой 1979.avi
Format : AVI
Format/Info : Audio Video Interleave
File size : 1.09 GiB
Duration : 1h 13mn
Overall bit rate : 2 141 Kbps
Writing library : VirtualDub build 35491/release
Video
ID : 0
Format : MPEG-4 Visual
Format profile : Advanced Simple@L5
Format settings, BVOP : 2
Format settings, QPel : No
Format settings, GMC : No warppoints
Format settings, Matrix : Default (H.263)
Codec ID : XVID
Codec ID/Hint : XviD
Duration : 1h 13mn
Bit rate : 1 939 Kbps
Width : 704 pixels
Height : 528 pixels
Display aspect ratio : 4:3
Frame rate : 25.000 fps
Color space : YUV
Chroma subsampling : 4:2:0
Bit depth : 8 bits
Scan type : Progressive
Compression mode : Lossy
Bits/(Pixel*Frame) : 0.209
Stream size : 1 015 MiB (91%)
Writing library : XviD 1.2.1 (UTC 2008-12-04)
Audio
ID : 1
Format : AC-3
Format/Info : Audio Coding 3
Mode extension : CM (complete main)
Format settings, Endianness : Big
Codec ID : 2000
Duration : 1h 13mn
Bit rate mode : Constant
Bit rate : 192 Kbps
Channel(s) : 2 channels
Channel positions : Front: L R
Sampling rate : 48.0 KHz
Bit depth : 16 bits
Compression mode : Lossy
Stream size : 100 MiB (9%)
Alignment : Aligned on interleaves
Interleave, duration : 40 ms (1.00 video frame)
Interleave, preload duration : 512 ms





   Похожие торренты   Торрент   Размер 
В этой теме нет новых непрочитанных сообщений. Русские сенсации. Возьми мое сердце [эфир от 27.10] (2012) SATRip

1 | 2

539.94 МБ

В этой теме нет новых непрочитанных сообщений. Багряные берега (1979) SATRip от New-Team

19 | 6

1.09 ГБ

В этой теме нет новых непрочитанных сообщений. Багряные берега (1979) SATRip-AVC от New-Team

57 | 20

1.09 ГБ

В этой теме нет новых непрочитанных сообщений. Багряные берега (1979) SATRip от New-Team

37 | 11

745.26 МБ

В этой теме нет новых непрочитанных сообщений. Возьми мои глаза / Te doy mis ojos (2003) DVDRip | P2

247 | 35

1.45 ГБ

В этой теме нет новых непрочитанных сообщений. Черт возьми! / Особа крупных размеров / Mince alors! (2012) DVDRip | L1

76 | 2

1.46 ГБ

В этой теме нет новых непрочитанных сообщений. Черт возьми! / Особа крупных размеров / Mince alors! (2012) HDRip | L1

56 | 2

1.46 ГБ




Вы не можете начинать темы
Вы не можете отвечать на сообщения
Вы не можете редактировать свои сообщения
Вы не можете удалять свои сообщения
Вы не можете добавлять вложения

Перейти:  
Для Мосгорсуда, Роскомнадзора и рекламодателей: mosgorsud-torrent[собачка]yandex.ru
 Вход
ppkBB3cker v.2 © 2008-2014 @ PPK
[ Time : 0.035s | 17 Queries | GZIP : Off ]

Торрент трекер RUTOR.IN, Не можете зайти на rutor.org? Какой новый адрес рутор? Какое зеркало рутор? Не работает rutor.org и зеркала? Тогда наш торрент специально для вас. Rutor.in неофициальное зеркало rutor. В случае если у Вас заблокирован rutor или вдруг Вы не можете на него зайти, то Вы без труда сможете скачать бесплатно и без рекламы последние новинки кино, игр, сериалов и прочего у нас, на Rutor.in. Не нужно использовать прокси, чтобы зайти на рутор, достаточно воспользоваться нашим ресурсом. Все новые фильмы, игры, сериалы, книги и музыка за 2013 и 2014 годы через торрент бесплатно. Скачивайте фильмы в хорошем качестве, игры для пк, xbox, playstation без регистрации. У нас вы найдете новые Зарубежные сериалы и Русские сериалы 2013, 2014, 2015 годов. Оставайтесь с нами, качайте любимые фильмы, игры, сериалы, книги и музыку.