img image001 image001 image001 image001 image001 image001 image001 image001 image001 image001 image001 image001 image001 image001 image001

Planets Sun Sun Sun
Статистика раздачи
Автор: Nickolas3434 | Размер: 1.51 ГБ | Добавлен: 05 ноя 2014
Раздают: 546    Качают: 23
Скачать торрент
Скачать торрент
Описание торрента

СообщениеДобавлено: 05 ноя 2014 

Информация о фильме
Название: Класс коррекции
Год выхода: 2014
Жанр: Драма
Режиссер: Иван И. Твердовский
В ролях: Мария Поезжаева, Никита Кукушкин, Филипп Авдеев, Ольга Лапшина, Наталья Павленкова, Юлия Серина, Артем Маркарьян, Мария Урядова, Наталья Домерецкая, Ирина Вилкова
О фильме:
После многолетнего домашнего обучения, девочка-колясочница Лена Чехова переводится в среднюю общеобразовательную школу, в класс коррекционного обучения, объединивший в себе детей с различными отклонениями. Там она не только встречает свою первую любовь, но и впервые в своей жизни сталкивается с жестокостью окружающего мира.

Страна: Россия
Студия: Новые люди
Продолжительность: 01:26:35
Язык: Русский
Файл
Формат: MKV
Качество: DVDRip-AVC
Видео: MPEG-4 AVC, 1999 Кбит/с, 720х576@1024х576
Звук: AC3, 6 ch, 448 Кбит/с
Общее
Уникальный идентификатор : 190447092076803867708113653012780084727 (0x8F46C6973D197C9FB66AF8C5E9D8EDF7)
Полное имя : E:Klass.korrekcii.2014.x264.DVDRip(AVC).CherV.mkv
Формат : Matroska
Версия формата : Version 4 / Version 2
Размер файла : 1,51 Гбайт
Продолжительность : 1 ч. 28 м.
Общий поток : 2447 Кбит/сек
Название фильма : Класс коррекции (2014)
Дата кодирования : UTC 2014-11-03 04:26:23
Программа кодирования : mkvmerge v7.3.0 ('Nouages') 32bit built on Oct 22 2014 18:44:01
Библиотека кодирования : libebml v1.3.0 + libmatroska v1.4.1
DURATION : 01:28:35.072000000
NUMBER_OF_FRAMES : 166096
NUMBER_OF_BYTES : 297644032
_STATISTICS_WRITING_APP : mkvmerge v7.3.0 ('Nouages') 32bit built on Oct 22 2014 18:44:01
_STATISTICS_WRITING_DATE_UTC : 2014-11-03 04:26:23
_STATISTICS_TAGS : BPS DURATION NUMBER_OF_FRAMES NUMBER_OF_BYTES
Видео
Идентификатор : 1
Формат : AVC
Формат/Информация : Advanced Video Codec
Профиль формата : High@L4.1
Параметр CABAC формата : Да
Параметр ReFrames формата : 9 кадров
Идентификатор кодека : V_MPEG4/ISO/AVC
Продолжительность : 1 ч. 28 м.
Битрейт : 1999 Кбит/сек
Ширина : 720 пикселей
Высота : 576 пикселей
Соотношение сторон : 16:9
Режим частоты кадров : Постоянный
Частота кадров : 25,000 кадров/сек
Стандарт вещания : PAL
Цветовое пространство : YUV
Субдискретизация насыщенности : 4:2:0
Битовая глубина : 8 бит
Тип развёртки : Прогрессивная
Бит/(Пиксели*Кадры) : 0.193
Размер потока : 1,21 Гбайт (80%)
Заголовок : Rip by CherV
Библиотека кодирования : x264 core 125 r2208 d9d2288
Настройки программы : cabac=1 / ref=9 / deblock=1:-3:-3 / analyse=0x3:0x113 / me=umh / subme=11 / psy=1 / psy_rd=1.00:0.20 / mixed_ref=1 / me_range=32 / chroma_me=1 / trellis=2 / 8x8dct=1 / cqm=0 / deadzone=21,11 / fast_pskip=0 / chroma_qp_offset=-3 / threads=3 / lookahead_threads=1 / sliced_threads=0 / nr=0 / decimate=0 / interlaced=0 / bluray_compat=0 / constrained_intra=0 / bframes=12 / b_pyramid=2 / b_adapt=2 / b_bias=0 / direct=3 / weightb=1 / open_gop=0 / weightp=2 / keyint=250 / keyint_min=25 / scenecut=40 / intra_refresh=0 / rc_lookahead=40 / rc=2pass / mbtree=0 / bitrate=1999 / ratetol=1.0 / qcomp=0.60 / qpmin=0 / qpmax=69 / qpstep=4 / cplxblur=20.0 / qblur=0.5 / vbv_maxrate=50000 / vbv_bufsize=50000 / nal_hrd=none / ip_ratio=1.40 / pb_ratio=1.30 / aq=1:1.00
Язык : Russian
Default : Да
Forced : Да
Аудио
Идентификатор : 2
Формат : AC-3
Формат/Информация : Audio Coding 3
Расширение режима : CM (complete main)
Параметр Endianness формата : Big
Идентификатор кодека : A_AC3
Продолжительность : 1 ч. 28 м.
Вид битрейта : Постоянный
Битрейт : 448 Кбит/сек
Каналы : 6 каналов
Расположение каналов : Front: L C R, Side: L R, LFE
Частота : 48,0 КГц
Битовая глубина : 16 бит
Метод сжатия : С потерями
Размер потока : 284 Мбайт (18%)
Язык : Russian
Default : Да
Forced : Да
Меню
00:00:00.000 : :Chapter 01
00:09:12.080 : :Chapter 02
00:18:25.280 : :Chapter 03
00:29:30.760 : :Chapter 04
00:40:48.800 : :Chapter 05
00:52:05.280 : :Chapter 06
01:03:12.440 : :Chapter 07
01:16:23.240 : :Chapter 08


Релиз от: CherV



   Похожие торренты   Торрент   Размер 
В этой теме нет новых непрочитанных сообщений. Класс коррекции (2014) DVDRip | Лицензия

1458 | 94

1.37 ГБ

В этой теме нет новых непрочитанных сообщений. Класс коррекции (2014) DVDRip от ExKinoRay | Лицензия

270 | 18

754.95 МБ

В этой теме нет новых непрочитанных сообщений. Класс коррекции (2014) WEBRip

2179 | 45

1.37 ГБ

В этой теме нет новых непрочитанных сообщений. Класс коррекции (2014) WEB-DLRip 720p

326 | 23

1.87 ГБ

В этой теме нет новых непрочитанных сообщений. Класс коррекции (2014) WEB-DLRip от Deadmauvlad

901 | 31

1.46 ГБ

В этой теме нет новых непрочитанных сообщений. Класс коррекции (2014) WEBRip от bittracker

471 | 13

745.97 МБ

В этой теме нет новых непрочитанных сообщений. Класс коррекции (2014) DVD5 от New-Team | Лицензия

101 | 6

4.1 ГБ




Вы не можете начинать темы
Вы не можете отвечать на сообщения
Вы не можете редактировать свои сообщения
Вы не можете удалять свои сообщения
Вы не можете добавлять вложения

Перейти:  
Для Мосгорсуда, Роскомнадзора и рекламодателей: mosgorsud-torrent[собачка]yandex.ru
 Вход
ppkBB3cker v.2 © 2008-2014 @ PPK
[ Time : 0.042s | 16 Queries | GZIP : Off ]

cron