img image001 image001 image001 image001 image001 image001 image001 image001 image001 image001 image001 image001 image001 image001 image001

Planets Sun Sun Sun
Статистика раздачи
Автор: Nickolas3434 | Размер: 744.19 МБ | Добавлен: 05 ноя 2014
Раздают: 5    Качают: 8
Скачать торрент
Скачать торрент
Описание торрента

СообщениеДобавлено: 05 ноя 2014 

Страна: СССР
Производство: Межрабпомфильм
Жанр: драма, комедия
Год выпуска: 1932
Продолжительность: 01:37:39
Перевод: не требуется
Оригинальная аудиодорожка: русский
Cубтитры: нет
Режиссер: Лев Кулешов
В ролях:
Николай Баталов, Елена Кузьмина, Михаил Доронин, Михаил Доллер, Дмитрий Кара-Дмитриев, Порфирий Подобед, Иван Бобров, Константин Хохлов, Анатолий Горчилин, Дмитрий Зольц, Петр Галаджев, Е. Шереметьева, Николай Гладков, Д. Дмитриади, Николай Акимов, Сергей Комаров, Владимир Уральский, Николай Крючков, Леонид Любашевский...
Описание:
Драматическая история о еврейском парне, эмигрировавшем в Америку в начале века и в 1919 году в качестве солдата американской армии попавшем в Россию. Перейдя на сторону Красной Армии, Лева Горизонт приводит и других американских солдат. Оканчивается гражданская война — и Горизонт становится машинистом паровоза…





Исходник: DVD5 R5
Тип релиза: DVDRip
Контейнер: AVI
Видео: 576x432 (4:3), 25 fps, XviD ~ 928 kbps avg, 0.149 bit/pixel
Аудио: 48 kHz, MP3 2.0, 128 kbps
Раздача от:
Общее
Полное имя : Gorizont.1932.DVDRip-745_[New-team]_by_AVP_Studio.avi
Формат : AVI
Формат/Информация : Audio Video Interleave
Размер файла : 744 Мбайт
Продолжительность : 1 ч. 37 м.
Общий поток : 1065 Кбит/сек
Программа кодирования : VirtualDubModRus 1.5.10.2 (build 2542/release)
Библиотека кодирования : VirtualDubMod build 2542/release
Видео
Идентификатор : 0
Формат : MPEG-4 Visual
Профиль формата : Advanced Simple@L5
Параметр BVOP формата : 1
Параметр QPel формата : Нет
Параметр GMC формата : Без точки перехода
Параметр матрицы формата : Выборочная
Идентификатор кодека : XVID
Идентификатор кодека/Подсказка : XviD
Продолжительность : 1 ч. 37 м.
Битрейт : 928 Кбит/сек
Ширина : 576 пикселей
Высота : 432 пикселя
Соотношение сторон : 4:3
Частота кадров : 25,000 кадров/сек
Цветовое пространство : YUV
Субдискретизация насыщенности : 4:2:0
Битовая глубина : 8 бит
Тип развёртки : Прогрессивная
Метод сжатия : С потерями
Бит/(Пиксели*Кадры) : 0.149
Размер потока : 648 Мбайт (87%)
Библиотека кодирования : XviD 73
Аудио
Идентификатор : 1
Формат : MPEG Audio
Версия формата : Version 1
Профиль формата : Layer 3
Идентификатор кодека : 55
Идентификатор кодека/Подсказка : MP3
Продолжительность : 1 ч. 37 м.
Вид битрейта : Постоянный
Битрейт : 128 Кбит/сек
Каналы : 1 канал
Частота : 48,0 КГц
Метод сжатия : С потерями
Размер потока : 89,4 Мбайт (12%)
Выравнивание : Соединение по промежуткам
Продолжительность промежутка : 40 мс. (1,00 видеокадр)
Время предзагрузки промежутка : 504 мс.
Библиотека кодирования : LAME3.99r
Настройки программы : -m m -V 4 -q 2 -lowpass 20.5 -b 128





   Похожие торренты   Торрент   Размер 
В этой теме нет новых непрочитанных сообщений. Горизонт (1932) DVDRip от New-Team

5 | 3

1.46 ГБ

В этой теме нет новых непрочитанных сообщений. Горизонт (1932) DVDRip-AVC от New-Team

15 | 4

1.46 ГБ

В этой теме нет новых непрочитанных сообщений. Сквозь горизонт / Горизонт Событий / Event Horizon (1997) BDRip от HQCLUB

252 | 14

1.45 ГБ

В этой теме нет новых непрочитанных сообщений. Сквозь горизонт (Горизонт событий) / Event Horizon (1997) BDRip 1080p от MediaClub | P, P2, A

118 | 23

12.13 ГБ

В этой теме нет новых непрочитанных сообщений. Встречный (1932) SATRip от New-Team

8 | 10

743.86 МБ

В этой теме нет новых непрочитанных сообщений. Встречный (1932) SATRip-AVC от New-Team

8 | 4

1.46 ГБ

В этой теме нет новых непрочитанных сообщений. Встречный (1932) SATRip от New-Team

34 | 14

1.87 ГБ




Вы не можете начинать темы
Вы не можете отвечать на сообщения
Вы не можете редактировать свои сообщения
Вы не можете удалять свои сообщения
Вы не можете добавлять вложения

Перейти:  
Для Мосгорсуда, Роскомнадзора и рекламодателей: mosgorsud-torrent[собачка]yandex.ru
 Вход
ppkBB3cker v.2 © 2008-2014 @ PPK
[ Time : 0.547s | 15 Queries | GZIP : Off ]

Торрент трекер RUTOR.IN, Не можете зайти на rutor.org? Какой новый адрес рутор? Какое зеркало рутор? Не работает rutor.org и зеркала? Тогда наш торрент специально для вас. Rutor.in неофициальное зеркало rutor. В случае если у Вас заблокирован rutor или вдруг Вы не можете на него зайти, то Вы без труда сможете скачать бесплатно и без рекламы последние новинки кино, игр, сериалов и прочего у нас, на Rutor.in. Не нужно использовать прокси, чтобы зайти на рутор, достаточно воспользоваться нашим ресурсом. Все новые фильмы, игры, сериалы, книги и музыка за 2013 и 2014 годы через торрент бесплатно. Скачивайте фильмы в хорошем качестве, игры для пк, xbox, playstation без регистрации. У нас вы найдете новые Зарубежные сериалы и Русские сериалы 2013, 2014, 2015 годов. Оставайтесь с нами, качайте любимые фильмы, игры, сериалы, книги и музыку.