img image001 image001 image001 image001 image001 image001 image001 image001 image001 image001 image001 image001 image001 image001 image001

Planets Sun Sun Sun
Статистика раздачи
Автор: Nickolas3434 | Размер: 1.46 ГБ | Добавлен: 06 ноя 2014
Раздают: 19    Качают: 5
Скачать торрент
Скачать торрент
Описание торрента

СообщениеДобавлено: 06 ноя 2014 

Страна: СССР
Производство: Межрабпом
Жанр: комедия
Год выпуска: 1930
Продолжительность: 01:19:59
Перевод: не требуется
Оригинальная аудиодорожка: русский
Cубтитры: нет
Режиссер: Яков Протазанов
В ролях:
Анатолий Кторов, Игорь Ильинский, Мария Стрелкова, Игорь Аркадин, Михаил Климов, Владимир Уральский, Анатолий Горюнов, Феофан Шипулинский, Николай Кутузов...
Описание:
Накануне церковного праздника из тюрьмы бежит вор Коркис. Смешавшись с толпой прихожан, герой вместе с сообщником оказывается у храма. Увидев, сколько денег оседает в карманах священнослужителей, Коркис не может удержаться от очередной авантюры…





Исходник: DVD5 R5
Тип релиза: DVDRip
Контейнер: AVI
Видео: 688x512 (4:3), 25 fps, XviD ~ 2406 kbps avg, 0.273 bit/pixel
Аудио: 48 kHz, Dolby Digital AC3 2.0, 192 kbps
Раздача от:
Общее
Полное имя : Prazdnik.svyatogo.Yorgena.1930.DVDRip_[New-team]_by_AVP_Studio.avi
Формат : AVI
Формат/Информация : Audio Video Interleave
Размер файла : 1,46 Гбайт
Продолжительность : 1 ч. 19 м.
Общий поток : 2608 Кбит/сек
Программа кодирования : VirtualDubModRus 1.5.10.2 (build 2542/release)
Библиотека кодирования : VirtualDubMod build 2542/release
Видео
Идентификатор : 0
Формат : MPEG-4 Visual
Профиль формата : Advanced Simple@L5
Параметр BVOP формата : 1
Параметр QPel формата : Нет
Параметр GMC формата : Без точки перехода
Параметр матрицы формата : Выборочная
Идентификатор кодека : XVID
Идентификатор кодека/Подсказка : XviD
Продолжительность : 1 ч. 19 м.
Битрейт : 2406 Кбит/сек
Ширина : 688 пикселей
Высота : 512 пикселей
Соотношение сторон : 4:3
Частота кадров : 25,000 кадров/сек
Цветовое пространство : YUV
Субдискретизация насыщенности : 4:2:0
Битовая глубина : 8 бит
Тип развёртки : Прогрессивная
Метод сжатия : С потерями
Бит/(Пиксели*Кадры) : 0.273
Размер потока : 1,34 Гбайт (92%)
Библиотека кодирования : XviD 73
Аудио
Идентификатор : 1
Формат : AC-3
Формат/Информация : Audio Coding 3
Расширение режима : CM (complete main)
Параметр Endianness формата : Big
Идентификатор кодека : 2000
Продолжительность : 1 ч. 19 м.
Вид битрейта : Постоянный
Битрейт : 192 Кбит/сек
Каналы : 2 канала
Расположение каналов : Front: L R
Частота : 48,0 КГц
Битовая глубина : 16 бит
Метод сжатия : С потерями
Размер потока : 110 Мбайт (7%)
Выравнивание : Разделение по промежуткам
Продолжительность промежутка : 40 мс. (1,00 видеокадр)
Время предзагрузки промежутка : 500 мс





   Похожие торренты   Торрент   Размер 
В этой теме нет новых непрочитанных сообщений. Праздник святого Йоргена (1930) DVDRip-AVC от New-Team

79 | 6

1.46 ГБ

В этой теме нет новых непрочитанных сообщений. Праздник святого Йоргена (1930) DVDRip от New-Team

15 | 7

745.09 МБ

В этой теме нет новых непрочитанных сообщений. Праздник святого Йоргена (1930) DVDRip-AVC

84 | 7

1.65 ГБ

В этой теме нет новых непрочитанных сообщений. Праздник святого Йоргена (1930) DVDRip

37 | 11

1.37 ГБ

В этой теме нет новых непрочитанных сообщений. Чемпионаты мира по футболу 1930-2006 / FIFA WORLD CUP 1930-2006 [9х15] (2010) DVDRip от KinoZalSat

2 | 6

1.37 ГБ

В этой теме нет новых непрочитанных сообщений. Чемпионаты мира по футболу 1930-2006 / FIFA WORLD CUP 1930 - 2006 [12х15] (2010) DVDRip от KinoZalSat

3 | 8

1.37 ГБ

В этой теме нет новых непрочитанных сообщений. Чемпионаты мира по футболу 1930-2006 / FIFA WORLD CUP 1930 - 2006 [7х15] (2010) DVDRip от KinoZalSat

1 | 4

1.37 ГБ




Вы не можете начинать темы
Вы не можете отвечать на сообщения
Вы не можете редактировать свои сообщения
Вы не можете удалять свои сообщения
Вы не можете добавлять вложения

Перейти:  
Для Мосгорсуда, Роскомнадзора и рекламодателей: mosgorsud-torrent[собачка]yandex.ru
 Вход
ppkBB3cker v.2 © 2008-2014 @ PPK
[ Time : 0.031s | 15 Queries | GZIP : On ]

Торрент трекер RUTOR.IN, Не можете зайти на rutor.org? Какой новый адрес рутор? Какое зеркало рутор? Не работает rutor.org и зеркала? Тогда наш торрент специально для вас. Rutor.in неофициальное зеркало rutor. В случае если у Вас заблокирован rutor или вдруг Вы не можете на него зайти, то Вы без труда сможете скачать бесплатно и без рекламы последние новинки кино, игр, сериалов и прочего у нас, на Rutor.in. Не нужно использовать прокси, чтобы зайти на рутор, достаточно воспользоваться нашим ресурсом. Все новые фильмы, игры, сериалы, книги и музыка за 2013 и 2014 годы через торрент бесплатно. Скачивайте фильмы в хорошем качестве, игры для пк, xbox, playstation без регистрации. У нас вы найдете новые Зарубежные сериалы и Русские сериалы 2013, 2014, 2015 годов. Оставайтесь с нами, качайте любимые фильмы, игры, сериалы, книги и музыку.