img image001 image001 image001 image001 image001 image001 image001 image001 image001 image001 image001 image001 image001 image001 image001

Planets Sun Sun Sun
Статистика раздачи
Автор: Nickolas3434 | Размер: 11.55 ГБ | Добавлен: 06 ноя 2014
Раздают: 254    Качают: 122
Скачать торрент
Скачать торрент
Описание торрента

СообщениеДобавлено: 06 ноя 2014 

Информация о фильме
    Название: 9 рота
    Оригинальное: The 9th Company
    Год выхода: 2005
    Выпущено: Art Pictures Group, Канал 1+1, Finnish Film Foundation, MRP Matila Rohr Productions Oy, Продюсерская компания "Слово", Канал СТС, Украинская Медийная Группа, Yleisradio
    Страна: Россия, Финляндия, Украина
    Жанр: Боевик, драма, военный, история
    Продолжительность: 02:19:13
    Перевод: Оригинал
    Режиссер: Фёдор Бондарчук
    В ролях: Алексей Чадов, Константин Крюков, Иван Кокорин, Михаил Евланов, Иван Николаев, Михаил Пореченков, Фёдор Бондарчук, Дмитрий Мухамадеев, Ирина Рахманова, Алексей Кравченко, Александр Баширов, Михаил Ефремов, Станислав Говорухин, Андрей Краско, Александр Лыков, Алексей Серебряков, Денис Мошкин, Александр Кучеренко, Светлана Иванова, Артур Смольянинов, Артём Михалков, Сослан Фидаров, Амаду Мамадаков, Александр Шейн, Олесь Кацион, Карен Мартиросян, Марат Гудиев, Евгений Арутюнян




Сюжет фильма
    СССР. Конец восьмидесятых. Семеро 18-летних призывников, добровольно записавшиеся в "афганскую команду", знакомятся на призывном пункте. После нескольких месяцев адской подготовки в "учебке", ребята попадают в горнило афганской кампании - в знаменитую 9 роту 345-го парашютно-десантного полка, самую боеспособную, самую героическую. Вскоре 9 рота получает задание: занять высоту 3234 над дорогой и удерживать ее до прохождения колонны наших войск… Фильм основан на реальных событиях.


Файл
    Кодек: x264
    Формат: MKV
    Качество: BDRip 1080p (Источник: The 9th Company 2005 Blu-ray GER 1080p AVC DTS-HD HR 7.1)
    Видео: MPEG-4 AVC 1920x774 pix, 23.976 fps, 11240 kbps, 0.315 Bits/Pixel
    Аудио: Dolby Digital (5.1) 16 bit, 48 kHz, 640 kbps
    Субтитры: SRT Русские, Английские
    Меню: Сохранены оригинальные чаптеры Blu-ray

x264 [info]: frame I:1801 Avg QP:18.83 size:192924
x264 [info]: frame P:46033 Avg QP:21.45 size: 93125
x264 [info]: frame B:152455 Avg QP:23.47 size: 46578
Общее
Уникальный идентификатор : 200847869371543195221982667408771102785 (0x9719E480B4D395F79DCAD4AB545BB841)
Формат : Matroska
Версия формата : Version 2
Размер файла : 11,6 Гбайт
Продолжительность : 2 ч. 19 м.
Общий поток : 11,9 Мбит/сек
Название фильма : 9 рота (2005) BDRip (1080p)
Дата кодирования : UTC 2014-11-05 09:26:39
Программа кодирования : mkvmerge v5.8.0 ('No Sleep / Pillow') built on Sep 2 2012 15:37:04
Библиотека кодирования : libebml v1.2.3 + libmatroska v1.3.0
Видео
Идентификатор : 1
Формат : AVC
Формат/Информация : Advanced Video Codec
Профиль формата : High@L4.1
Параметр CABAC формата : Да
Параметр ReFrames формата : 5 кадров
Идентификатор кодека : V_MPEG4/ISO/AVC
Продолжительность : 2 ч. 19 м.
Битрейт : 11,2 Мбит/сек
Ширина : 1920 пикселей
Высота : 774 пикселя
Соотношение сторон : 2,481
Режим частоты кадров : Постоянный
Частота кадров : 23,976 кадра/сек
Цветовое пространство : YUV
Субдискретизация насыщенности : 4:2:0
Битовая глубина : 8 бит
Тип развёртки : Прогрессивная
Бит/(Пиксели*Кадры) : 0.315
Размер потока : 10,7 Гбайт (93%)
Заголовок : Release by Alex260680
Библиотека кодирования : x264 core 142 r2479 dd79a61
Настройки программы : cabac=1 / ref=5 / deblock=1:-3:-3 / analyse=0x3:0x133 / me=umh / subme=11 / psy=1 / psy_rd=1.00:0.00 / mixed_ref=1 / me_range=32 / chroma_me=1 / trellis=2 / 8x8dct=1 / cqm=0 / deadzone=21,11 / fast_pskip=0 / chroma_qp_offset=-2 / threads=6 / lookahead_threads=1 / sliced_threads=0 / nr=0 / decimate=0 / interlaced=0 / bluray_compat=0 / constrained_intra=0 / bframes=6 / b_pyramid=2 / b_adapt=2 / b_bias=0 / direct=3 / weightb=1 / open_gop=0 / weightp=2 / keyint=240 / keyint_min=23 / scenecut=40 / intra_refresh=0 / rc=2pass / mbtree=0 / bitrate=11240 / ratetol=1.0 / qcomp=0.60 / qpmin=0 / qpmax=69 / qpstep=4 / cplxblur=20.0 / qblur=0.5 / ip_ratio=1.40 / pb_ratio=1.30 / aq=1:0.80
Язык : Russian
Default : Да
Forced : Нет
Аудио
Идентификатор : 2
Формат : AC-3
Формат/Информация : Audio Coding 3
Расширение режима : CM (complete main)
Параметр Endianness формата : Big
Идентификатор кодека : A_AC3
Продолжительность : 2 ч. 19 м.
Вид битрейта : Постоянный
Битрейт : 640 Кбит/сек
Каналы : 6 каналов
Расположение каналов : Front: L C R, Side: L R, LFE
Частота : 48,0 КГц
Битовая глубина : 16 бит
Метод сжатия : С потерями
Размер потока : 637 Мбайт (5%)
Заголовок : Original
Язык : Russian
Default : Да
Forced : Нет
Текст #1
Идентификатор : 3
Формат : UTF-8
Идентификатор кодека : S_TEXT/UTF8
Идентификатор кодека/Информация : UTF-8 Plain Text
Язык : Russian
Default : Нет
Forced : Нет
Текст #2
Идентификатор : 4
Формат : UTF-8
Идентификатор кодека : S_TEXT/UTF8
Идентификатор кодека/Информация : UTF-8 Plain Text
Язык : English
Default : Нет
Forced : Нет
Меню
00:00:00.000 : en:Chapter 01
00:10:04.395 : en:Chapter 02
00:26:26.835 : en:Chapter 03
00:37:27.579 : en:Chapter 04
00:46:48.055 : en:Chapter 05
00:59:00.495 : en:Chapter 06
01:11:37.752 : en:Chapter 07
01:23:07.983 : en:Chapter 08
01:37:39.687 : en:Chapter 09
01:48:14.321 : en:Chapter 10
01:55:44.604 : en:Chapter 11
02:14:44.910 : en:Chapter 12



   Похожие торренты   Торрент   Размер 
В этой теме нет новых непрочитанных сообщений. 9 рота (2005) BDRemux 1080p от ExKinoRay | GER Transfer | Лицензия

235 | 103

27.25 ГБ

В этой теме нет новых непрочитанных сообщений. 9 рота (2005) BDRip 1080p

102 | 15

4.37 ГБ

В этой теме нет новых непрочитанных сообщений. 9 Рота (2005) BDRip 1080p

3 | 4

12.28 ГБ

В этой теме нет новых непрочитанных сообщений. 9 рота (2005) BDRip 1080p

8 | 14

7.75 ГБ

В этой теме нет новых непрочитанных сообщений. 9 рота / 9th Company: Roots of Terror (2008) PC

68 | 14

1.4 ГБ

В этой теме нет новых непрочитанных сообщений. 9 Рота / 9th Company: Roots of Terror (2009) PC | RePack

252 | 3

1.23 ГБ

В этой теме нет новых непрочитанных сообщений. 9 рота (2005) BDRip-AVC

476 | 39

2.18 ГБ




Вы не можете начинать темы
Вы не можете отвечать на сообщения
Вы не можете редактировать свои сообщения
Вы не можете удалять свои сообщения
Вы не можете добавлять вложения

Перейти:  
Для Мосгорсуда, Роскомнадзора и рекламодателей: mosgorsud-torrent[собачка]yandex.ru
 Вход
ppkBB3cker v.2 © 2008-2014 @ PPK
[ Time : 0.053s | 16 Queries | GZIP : Off ]

Торрент трекер RUTOR.IN, Не можете зайти на rutor.org? Какой новый адрес рутор? Какое зеркало рутор? Не работает rutor.org и зеркала? Тогда наш торрент специально для вас. Rutor.in неофициальное зеркало rutor. В случае если у Вас заблокирован rutor или вдруг Вы не можете на него зайти, то Вы без труда сможете скачать бесплатно и без рекламы последние новинки кино, игр, сериалов и прочего у нас, на Rutor.in. Не нужно использовать прокси, чтобы зайти на рутор, достаточно воспользоваться нашим ресурсом. Все новые фильмы, игры, сериалы, книги и музыка за 2013 и 2014 годы через торрент бесплатно. Скачивайте фильмы в хорошем качестве, игры для пк, xbox, playstation без регистрации. У нас вы найдете новые Зарубежные сериалы и Русские сериалы 2013, 2014, 2015 годов. Оставайтесь с нами, качайте любимые фильмы, игры, сериалы, книги и музыку.