img image001 image001 image001 image001 image001 image001 image001 image001 image001 image001 image001 image001 image001 image001 image001

Planets Sun Sun Sun
Статистика раздачи
Автор: Nickolas3434 | Размер: 745.09 МБ | Добавлен: 05 ноя 2014
Раздают: 20    Качают: 7
Скачать торрент
Скачать торрент
Описание торрента

СообщениеДобавлено: 05 ноя 2014 

Страна: СССР
Производство: Межрабпом
Жанр: комедия
Год выпуска: 1930
Продолжительность: 01:19:59
Перевод: не требуется
Оригинальная аудиодорожка: русский
Cубтитры: нет
Режиссер: Яков Протазанов
В ролях:
Анатолий Кторов, Игорь Ильинский, Мария Стрелкова, Игорь Аркадин, Михаил Климов, Владимир Уральский, Анатолий Горюнов, Феофан Шипулинский, Николай Кутузов...
Описание:
Накануне церковного праздника из тюрьмы бежит вор Коркис. Смешавшись с толпой прихожан, герой вместе с сообщником оказывается у храма. Увидев, сколько денег оседает в карманах священнослужителей, Коркис не может удержаться от очередной авантюры…





Исходник: DVD5 R5
Тип релиза: DVDRip
Контейнер: AVI
Видео: 640x480 (4:3), 25 fps, XviD ~ 1165 kbps avg, 0.152 bit/pixel
Аудио: 48 kHz, MP3 2.0, 128 kbps
Раздача от:
Общее
Полное имя : Prazdnik.svyatogo.Yorgena.1930.DVDRip-745_[New-team]_by_AVP_Studio.avi
Формат : AVI
Формат/Информация : Audio Video Interleave
Размер файла : 745 Мбайт
Продолжительность : 1 ч. 19 м.
Общий поток : 1302 Кбит/сек
Программа кодирования : VirtualDubModRus 1.5.10.2 (build 2542/release)
Библиотека кодирования : VirtualDubMod build 2542/release
Видео
Идентификатор : 0
Формат : MPEG-4 Visual
Профиль формата : Advanced Simple@L5
Параметр BVOP формата : 1
Параметр QPel формата : Нет
Параметр GMC формата : Без точки перехода
Параметр матрицы формата : Выборочная
Идентификатор кодека : XVID
Идентификатор кодека/Подсказка : XviD
Продолжительность : 1 ч. 19 м.
Битрейт : 1165 Кбит/сек
Ширина : 640 пикселей
Высота : 480 пикселей
Соотношение сторон : 4:3
Частота кадров : 25,000 кадров/сек
Цветовое пространство : YUV
Субдискретизация насыщенности : 4:2:0
Битовая глубина : 8 бит
Тип развёртки : Прогрессивная
Метод сжатия : С потерями
Бит/(Пиксели*Кадры) : 0.152
Размер потока : 666 Мбайт (89%)
Библиотека кодирования : XviD 73
Аудио
Идентификатор : 1
Формат : MPEG Audio
Версия формата : Version 1
Профиль формата : Layer 3
Идентификатор кодека : 55
Идентификатор кодека/Подсказка : MP3
Продолжительность : 1 ч. 19 м.
Вид битрейта : Постоянный
Битрейт : 128 Кбит/сек
Каналы : 2 канала
Частота : 48,0 КГц
Метод сжатия : С потерями
Размер потока : 73,2 Мбайт (10%)
Выравнивание : Соединение по промежуткам
Продолжительность промежутка : 40 мс. (1,00 видеокадр)
Время предзагрузки промежутка : 504 мс.
Библиотека кодирования : LAME3.99r
Настройки программы : -m s -V 4 -q 2 -lowpass 17 -b 128





   Похожие торренты   Торрент   Размер 
В этой теме нет новых непрочитанных сообщений. Праздник святого Йоргена (1930) DVDRip-AVC от New-Team

79 | 6

1.46 ГБ

В этой теме нет новых непрочитанных сообщений. Праздник святого Йоргена (1930) DVDRip от New-Team

21 | 3

1.46 ГБ

В этой теме нет новых непрочитанных сообщений. Праздник святого Йоргена (1930) DVDRip-AVC

84 | 7

1.65 ГБ

В этой теме нет новых непрочитанных сообщений. Праздник святого Йоргена (1930) DVDRip

37 | 11

1.37 ГБ

В этой теме нет новых непрочитанных сообщений. Чемпионаты мира по футболу 1930-2006 / FIFA WORLD CUP 1930 - 2006 [6х15] (2010) DVDRip от KinoZalSat

3 | 9

1.37 ГБ

В этой теме нет новых непрочитанных сообщений. Чемпионаты мира по футболу 1930-2006 / FIFA WORLD CUP 1930 - 2006 [5х15] (2010) DVDRip от KinoZalSat

5 | 4

1.37 ГБ

В этой теме нет новых непрочитанных сообщений. Чемпионаты мира по футболу 1930-2006 / FIFA WORLD CUP 1930 - 2006 [4х15] (2010) DVDRip от KinoZalSat

5 | 4

1.37 ГБ




Вы не можете начинать темы
Вы не можете отвечать на сообщения
Вы не можете редактировать свои сообщения
Вы не можете удалять свои сообщения
Вы не можете добавлять вложения

Перейти:  
Для Мосгорсуда, Роскомнадзора и рекламодателей: mosgorsud-torrent[собачка]yandex.ru
 Вход
ppkBB3cker v.2 © 2008-2014 @ PPK
[ Time : 0.039s | 16 Queries | GZIP : Off ]

cron