img image001 image001 image001 image001 image001 image001 image001 image001 image001 image001 image001 image001 image001 image001 image001

Planets Sun Sun Sun
Статистика раздачи
Автор: Nickolas3434 | Размер: 1.87 ГБ | Добавлен: 07 ноя 2014
Раздают: 34    Качают: 14
Скачать торрент
Скачать торрент
Описание торрента

СообщениеДобавлено: 07 ноя 2014 

Страна: СССР
Производство: Ленфильм, Росфильм, Совкино
Жанр: драма
Год выпуска: 1932
Продолжительность: 01:46:39
Перевод: не требуется
Оригинальная аудиодорожка: русский
Cубтитры: нет
Режиссер: Фридрих Эрмлер
В ролях:
Борис Пославский (...Скворцов), Андрей Абрикосов, Петр Алейников, Борис Тенин (...секретарь парткома), Зоя Федорова, Степан Крылов, Николай Черкасов, Николай Козловский, Мария Блюменталь-Тамарина, Фридрих Эрмлер, Татьяна Гурецкая, Владимир Гардин, Николай Мичурин...
Описание:
Рассказ о рабочих ленинградского турбинного завода, построивших первую советскую турбину…





Исходник: DVB
Тип релиза: SATRip
Контейнер: AVI
Видео: 688x512 (4:3), 25 fps, XviD ~ 2305 kbps avg, 0.262 bit/pixel
Аудио: 48 kHz, Dolby Digital AC3 2.0, 192 kbps
Раздача от:
Общее
Полное имя : Vstrechnyy.1932.SATRip_[New-team]_by_AVP_Studio.avi
Формат : AVI
Формат/Информация : Audio Video Interleave
Размер файла : 1,87 Гбайт
Продолжительность : 1 ч. 46 м.
Общий поток : 2506 Кбит/сек
Программа кодирования : VirtualDubModRus 1.5.10.2 (build 2542/release)
Библиотека кодирования : VirtualDubMod build 2542/release
Видео
Идентификатор : 0
Формат : MPEG-4 Visual
Профиль формата : Advanced Simple@L5
Параметр BVOP формата : 1
Параметр QPel формата : Нет
Параметр GMC формата : Без точки перехода
Параметр матрицы формата : Выборочная
Идентификатор кодека : XVID
Идентификатор кодека/Подсказка : XviD
Продолжительность : 1 ч. 46 м.
Битрейт : 2305 Кбит/сек
Ширина : 688 пикселей
Высота : 512 пикселей
Соотношение сторон : 4:3
Частота кадров : 25,000 кадров/сек
Цветовое пространство : YUV
Субдискретизация насыщенности : 4:2:0
Битовая глубина : 8 бит
Тип развёртки : Прогрессивная
Метод сжатия : С потерями
Бит/(Пиксели*Кадры) : 0.262
Размер потока : 1,72 Гбайт (92%)
Библиотека кодирования : XviD 73
Аудио
Идентификатор : 1
Формат : AC-3
Формат/Информация : Audio Coding 3
Расширение режима : CM (complete main)
Параметр Endianness формата : Big
Идентификатор кодека : 2000
Продолжительность : 1 ч. 46 м.
Вид битрейта : Постоянный
Битрейт : 192 Кбит/сек
Каналы : 2 канала
Расположение каналов : Front: L R
Частота : 48,0 КГц
Битовая глубина : 16 бит
Метод сжатия : С потерями
Размер потока : 146 Мбайт (8%)
Выравнивание : Разделение по промежуткам
Продолжительность промежутка : 40 мс. (1,00 видеокадр)
Время предзагрузки промежутка : 500 мс





   Похожие торренты   Торрент   Размер 
В этой теме нет новых непрочитанных сообщений. Встречный (1932) SATRip от New-Team

8 | 10

743.86 МБ

В этой теме нет новых непрочитанных сообщений. Встречный (1932) SATRip-AVC от New-Team

8 | 4

1.46 ГБ

В этой теме нет новых непрочитанных сообщений. Горизонт (1932) DVDRip от New-Team

5 | 8

744.19 МБ

В этой теме нет новых непрочитанных сообщений. Горизонт (1932) DVDRip-AVC от New-Team

15 | 4

1.46 ГБ

В этой теме нет новых непрочитанных сообщений. Горизонт (1932) DVDRip от New-Team

5 | 3

1.46 ГБ

В этой теме нет новых непрочитанных сообщений. Курск - 1943. Встречный бой. Фильм Леонида Млечина (2013) SATRip

20 | 2

456.2 МБ

В этой теме нет новых непрочитанных сообщений. Блондинка из варьете / Blondie of the Follies (1932) SATRip | SATKUR

22 | 8

862.88 МБ




Вы не можете начинать темы
Вы не можете отвечать на сообщения
Вы не можете редактировать свои сообщения
Вы не можете удалять свои сообщения
Вы не можете добавлять вложения

Перейти:  
Для Мосгорсуда, Роскомнадзора и рекламодателей: mosgorsud-torrent[собачка]yandex.ru
 Вход
ppkBB3cker v.2 © 2008-2014 @ PPK
[ Time : 0.545s | 15 Queries | GZIP : Off ]

Торрент трекер RUTOR.IN, Не можете зайти на rutor.org? Какой новый адрес рутор? Какое зеркало рутор? Не работает rutor.org и зеркала? Тогда наш торрент специально для вас. Rutor.in неофициальное зеркало rutor. В случае если у Вас заблокирован rutor или вдруг Вы не можете на него зайти, то Вы без труда сможете скачать бесплатно и без рекламы последние новинки кино, игр, сериалов и прочего у нас, на Rutor.in. Не нужно использовать прокси, чтобы зайти на рутор, достаточно воспользоваться нашим ресурсом. Все новые фильмы, игры, сериалы, книги и музыка за 2013 и 2014 годы через торрент бесплатно. Скачивайте фильмы в хорошем качестве, игры для пк, xbox, playstation без регистрации. У нас вы найдете новые Зарубежные сериалы и Русские сериалы 2013, 2014, 2015 годов. Оставайтесь с нами, качайте любимые фильмы, игры, сериалы, книги и музыку.