img image001 image001 image001 image001 image001 image001 image001 image001 image001 image001 image001 image001 image001 image001 image001

Planets Sun Sun Sun
Статистика раздачи
Автор: Nickolas3434 | Размер: 1.46 ГБ | Добавлен: 07 ноя 2014
Раздают: 693    Качают: 12
Скачать торрент
Скачать торрент
Описание торрента

СообщениеДобавлено: 07 ноя 2014 

«Как всё это случилось?»



Страна: Россия
Производство: Студия Тритэ
Жанр: драма
Год выпуска: 1997
Продолжительность: 02:52:27
Перевод: не требуется
Оригинальная аудиодорожка: нет
Cубтитры: нет
Режиссер: Никита Михалков
В ролях:
Мартиньш Калита, Виктория Соловьёва (II), Анастасия Имамова, Сергей Серов, Ксения Попович, Милош Бикович, Андрей Попович, Александр Устюгов, Александр Обласов, Александр Борисов (II), Максим Битюков, Илья Кипоренко, Сергей Бачурский, Кристина Кириллова, Алексей Дякин, Нина Сизова, Виталий Кищенко, Мириам Сехон, Дарья Белоусова (II), Сергей Карпов (IV)...
Описание:
Всего одна ночь с незнакомкой становится для главного героя настоящим наваждением. Этот «солнечный удар» не отпускает его даже в самые «окаянные дни» гибели Российской Империи…







Исходник: HDTV 1080i
Тип релиза: HDTVRip
Контейнер: AVI
Видео: 720x304 (2,35:1), 25 fps, XviD ~ 1007 kbps avg, 0.184 bit/pixel
Аудио: 48 kHz, Dolby Digital AC3 2.0, 192 kbps
Раздача от:
Общее
Полное имя : Solnechnyy.udar.2014.HDTVRip_[New-team]_by_AVP_Studio.avi
Формат : AVI
Формат/Информация : Audio Video Interleave
Размер файла : 1,46 Гбайт
Продолжительность : 2 ч. 52 м.
Общий поток : 1209 Кбит/сек
Программа кодирования : VirtualDubModRus 1.5.10.2 (build 2542/release)
Библиотека кодирования : VirtualDubMod build 2542/release
Видео
Идентификатор : 0
Формат : MPEG-4 Visual
Профиль формата : Advanced Simple@L5
Параметр BVOP формата : 1
Параметр QPel формата : Нет
Параметр GMC формата : Без точки перехода
Параметр матрицы формата : Выборочная
Идентификатор кодека : XVID
Идентификатор кодека/Подсказка : XviD
Продолжительность : 2 ч. 52 м.
Битрейт : 1007 Кбит/сек
Ширина : 720 пикселей
Высота : 304 пикселя
Соотношение сторон : 2,35:1
Частота кадров : 25,000 кадров/сек
Цветовое пространство : YUV
Субдискретизация насыщенности : 4:2:0
Битовая глубина : 8 бит
Тип развёртки : Прогрессивная
Метод сжатия : С потерями
Бит/(Пиксели*Кадры) : 0.184
Размер потока : 1,21 Гбайт (83%)
Библиотека кодирования : XviD 73
Аудио
Идентификатор : 1
Формат : AC-3
Формат/Информация : Audio Coding 3
Расширение режима : CM (complete main)
Параметр Endianness формата : Big
Идентификатор кодека : 2000
Продолжительность : 2 ч. 52 м.
Вид битрейта : Постоянный
Битрейт : 192 Кбит/сек
Каналы : 2 канала
Расположение каналов : Front: L R
Частота : 48,0 КГц
Битовая глубина : 16 бит
Метод сжатия : С потерями
Размер потока : 237 Мбайт (16%)
Выравнивание : Разделение по промежуткам
Продолжительность промежутка : 40 мс. (1,00 видеокадр)
Время предзагрузки промежутка : 500 мс





   Похожие торренты   Торрент   Размер 
В этой теме нет новых непрочитанных сообщений. Солнечный удар (2014) HDTVRip-AVC от New-Team

393 | 15

2.18 ГБ

В этой теме нет новых непрочитанных сообщений. Солнечный удар (2014) DVD9 от New-Team | Лицензия

206 | 19

7.05 ГБ

В этой теме нет новых непрочитанных сообщений. Солнечный удар (2014) DVDRip от New-Team | лицензия

988 | 98

1.46 ГБ

В этой теме нет новых непрочитанных сообщений. Солнечный удар (2014) DVDRip-AVC от New-Team | лицензия

202 | 13

2.91 ГБ

В этой теме нет новых непрочитанных сообщений. Солнечный удар (2014) DVDRip от New-Team | лицензия

446 | 24

2.19 ГБ

В этой теме нет новых непрочитанных сообщений. Солнечный удар (2014) HDTVRip-AVC

385 | 12

2.83 ГБ

В этой теме нет новых непрочитанных сообщений. Солнечный удар (2014) HDTVRip от Scarabey

1117 | 25

2.18 ГБ




Вы не можете начинать темы
Вы не можете отвечать на сообщения
Вы не можете редактировать свои сообщения
Вы не можете удалять свои сообщения
Вы не можете добавлять вложения

Перейти:  
Для Мосгорсуда, Роскомнадзора и рекламодателей: mosgorsud-torrent[собачка]yandex.ru
 Вход
ppkBB3cker v.2 © 2008-2014 @ PPK
[ Time : 0.547s | 16 Queries | GZIP : Off ]

Торрент трекер RUTOR.IN, Не можете зайти на rutor.org? Какой новый адрес рутор? Какое зеркало рутор? Не работает rutor.org и зеркала? Тогда наш торрент специально для вас. Rutor.in неофициальное зеркало rutor. В случае если у Вас заблокирован rutor или вдруг Вы не можете на него зайти, то Вы без труда сможете скачать бесплатно и без рекламы последние новинки кино, игр, сериалов и прочего у нас, на Rutor.in. Не нужно использовать прокси, чтобы зайти на рутор, достаточно воспользоваться нашим ресурсом. Все новые фильмы, игры, сериалы, книги и музыка за 2013 и 2014 годы через торрент бесплатно. Скачивайте фильмы в хорошем качестве, игры для пк, xbox, playstation без регистрации. У нас вы найдете новые Зарубежные сериалы и Русские сериалы 2013, 2014, 2015 годов. Оставайтесь с нами, качайте любимые фильмы, игры, сериалы, книги и музыку.
cron