img image001 image001 image001 image001 image001 image001 image001 image001 image001 image001 image001 image001 image001 image001 image001

Planets Sun Sun Sun
Статистика раздачи
Автор: Nickolas3434 | Размер: 1.6 ГБ | Добавлен: 09 ноя 2014
Раздают: 464    Качают: 16
Скачать торрент
Скачать торрент
Описание торрента

СообщениеДобавлено: 09 ноя 2014 

Информация о фильме
Оригинальное название: Корпоратив
Год выпуска: 2014
Жанр: Комедия
Режиссер: Олег Асадулин
В ролях: Николай Наумов, Владимир Толоконников, Мирослава Карпович, Андрей Федорцов, Аристарх Венес, Марина Федункив, Михаил Башкатов, Максим Виторган, Сергей Белоголовцев, Ксения Собчак, Роман Юнусов
О фильме:
Игорь - старший менеджер в мебельном салоне, мечтающий о повышении. На следующий день после корпоративной вечеринки он обнаруживает, что салон полностью разгромлен. Сотрудники утверждают, что когда они уходили, всё было в порядке. Игоря это не устраивает, ведь теперь на кону его карьера. Пытаясь выяснить, что же произошло, Игорь узнаёт шокирующие подробности о ночных приключениях своих коллег…

Страна: Россия
Студия: Enjoy Movies
Продолжительность: 01:25:09
Язык: Русский
Файл
Кодек: MPEG-4 AVC
Качество: WEB-DLRip-AVC
Видео: MPEG-4 AVC, 2302 Кбит/с, 1024x576
Звук: AC3, 6 ch, 384 Кбит/с
General
Unique ID : 176474773860676682126957399650905097863 (0x84C3CE1DB3D7931394C27B6831C00687)
Complete name : C:Korp0rativ.2014.O.WEB-DLRip.ExKinoRay.mkv
Format : Matroska
Format version : Version 2
File size : 1.60 GiB
Duration : 1h 25mn
Overall bit rate : 2 686 Kbps
Movie name : Korpotativ 2014 from ExKinoRay
Encoded date : UTC 2014-11-08 00:23:12
Writing application : mkvmerge v4.9.1 ('Ich will') built on Jul 11 2011 23:53:15
Writing library : libebml v1.2.1 + libmatroska v1.1.1
Video
ID : 1
Format : AVC
Format/Info : Advanced Video Codec
Format profile : High@L4.1
Format settings, CABAC : Yes
Format settings, ReFrames : 8 frames
Codec ID : V_MPEG4/ISO/AVC
Duration : 1h 25mn
Bit rate : 2 302 Kbps
Width : 1 024 pixels
Height : 576 pixels
Display aspect ratio : 16:9
Frame rate mode : Constant
Frame rate : 25.000 fps
Color space : YUV
Chroma subsampling : 4:2:0
Bit depth : 8 bits
Scan type : Progressive
Bits/(Pixel*Frame) : 0.156
Stream size : 1.34 GiB (84%)
Title : Enigma
Writing library : x264 core 133 r2334 a3ac64b
Encoding settings : cabac=1 / ref=8 / deblock=1:-2:-2 / analyse=0x3:0x113 / me=umh / subme=11 / psy=1 / psy_rd=1.00:0.10 / mixed_ref=1 / me_range=32 / chroma_me=1 / trellis=2 / 8x8dct=1 / cqm=0 / deadzone=21,11 / fast_pskip=0 / chroma_qp_offset=-3 / threads=12 / lookahead_threads=2 / sliced_threads=0 / nr=0 / decimate=0 / interlaced=0 / bluray_compat=0 / constrained_intra=0 / bframes=9 / b_pyramid=2 / b_adapt=2 / b_bias=0 / direct=3 / weightb=1 / open_gop=0 / weightp=2 / keyint=250 / keyint_min=25 / scenecut=40 / intra_refresh=0 / rc=2pass / mbtree=0 / bitrate=2302 / ratetol=1.0 / qcomp=0.60 / qpmin=0 / qpmax=69 / qpstep=4 / cplxblur=20.0 / qblur=0.5 / ip_ratio=1.40 / pb_ratio=1.30 / aq=1:1.00
Default : Yes
Forced : No
Color primaries : BT.709
Transfer characteristics : BT.709
Matrix coefficients : BT.709
Audio
ID : 2
Format : AC-3
Format/Info : Audio Coding 3
Mode extension : CM (complete main)
Format settings, Endianness : Big
Codec ID : A_AC3
Duration : 1h 25mn
Bit rate mode : Constant
Bit rate : 384 Kbps
Channel(s) : 6 channels
Channel positions : Front: L C R, Side: L R, LFE
Sampling rate : 48.0 KHz
Bit depth : 16 bits
Compression mode : Lossy
Stream size : 234 MiB (14%)
Language : Russian
Default : Yes
Forced : No
Menu
00:00:00.000 : en:Глава 1
00:05:41.000 : en:Глава 2
00:10:41.000 : en:Глава 3
00:15:08.000 : en:Глава 4
00:20:21.000 : en:Глава 5
00:25:19.000 : en:Глава 6
00:30:20.000 : en:Глава 7
00:35:07.000 : en:Глава 8
00:40:08.000 : en:Глава 9
00:45:32.000 : en:Глава 10
00:51:14.000 : en:Глава 11
00:55:54.000 : en:Глава 12
01:00:34.000 : en:Глава 13
01:05:14.000 : en:Глава 14
01:10:19.000 : en:Глава 15
01:15:13.000 : en:Глава 16
01:19:42.000 : en:Глава 17




Релиз от:
Автор релиза:



   Похожие торренты   Торрент   Размер 
В этой теме нет новых непрочитанных сообщений. Корпоратив (2014) DVDRip-AVC от ExKinoRay

799 | 51

744.55 МБ

В этой теме нет новых непрочитанных сообщений. Корпоратив (2014) WEB-DLRip

1593 | 47

1.37 ГБ

В этой теме нет новых непрочитанных сообщений. Корпоратив (2014) WEB-DLRip-AVC

660 | 25

1.38 ГБ

В этой теме нет новых непрочитанных сообщений. Корпоратив (2014) WEB-DLRip от ivandubskoj

248 | 24

1.46 ГБ

В этой теме нет новых непрочитанных сообщений. Корпоратив (2014) WEB-DLRip от ivandubskoj | iTunes Russia

247 | 7

1.46 ГБ

В этой теме нет новых непрочитанных сообщений. Корпоратив (2014) DVB от MediaClub

3267 | 179

2.73 ГБ

В этой теме нет новых непрочитанных сообщений. Корпоратив (2014) WEBRip

1547 | 33

699.3 МБ




Вы не можете начинать темы
Вы не можете отвечать на сообщения
Вы не можете редактировать свои сообщения
Вы не можете удалять свои сообщения
Вы не можете добавлять вложения

Перейти:  
Для Мосгорсуда, Роскомнадзора и рекламодателей: mosgorsud-torrent[собачка]yandex.ru
 Вход
ppkBB3cker v.2 © 2008-2014 @ PPK
[ Time : 0.035s | 16 Queries | GZIP : Off ]

Торрент трекер RUTOR.IN, Не можете зайти на rutor.org? Какой новый адрес рутор? Какое зеркало рутор? Не работает rutor.org и зеркала? Тогда наш торрент специально для вас. Rutor.in неофициальное зеркало rutor. В случае если у Вас заблокирован rutor или вдруг Вы не можете на него зайти, то Вы без труда сможете скачать бесплатно и без рекламы последние новинки кино, игр, сериалов и прочего у нас, на Rutor.in. Не нужно использовать прокси, чтобы зайти на рутор, достаточно воспользоваться нашим ресурсом. Все новые фильмы, игры, сериалы, книги и музыка за 2013 и 2014 годы через торрент бесплатно. Скачивайте фильмы в хорошем качестве, игры для пк, xbox, playstation без регистрации. У нас вы найдете новые Зарубежные сериалы и Русские сериалы 2013, 2014, 2015 годов. Оставайтесь с нами, качайте любимые фильмы, игры, сериалы, книги и музыку.