img image001 image001 image001 image001 image001 image001 image001 image001 image001 image001 image001 image001 image001 image001 image001

Planets Sun Sun Sun
Статистика раздачи
Автор: Nickolas3434 | Размер: 1.46 ГБ | Добавлен: 11 ноя 2014
Раздают: 39    Качают: 33
Скачать торрент
Скачать торрент
Описание торрента

СообщениеДобавлено: 11 ноя 2014 

Страна: СССР
Производство: Мосфильм
Жанр: детектив, приключения
Год выпуска: 1939
Продолжительность: 1:41:49
Перевод: не требуется
Оригинальная аудиодорожка: русский
Cубтитры: нет
Режиссер: Александр Мачерет
В ролях:
Николай Дорохин, Любовь Орлова, Михаил Жаров, С.Никонов, Борис Петкер, Фаина Раневская, Б.Свобода, Петр Леонтьев, В.Ключарев, Леонид Кмит, Марина Гаврилко...
Описание:
Инженер-конструктор московского авиационного завода Кочин получает разрешение у начальника отдела взять домой на ночь секретные чертежи и внести последние исправления. Агент иностранной разведки Тривош с помощью соседки Кочина - Ксении Лебедевой - пробирается в комнату инженера и фотографирует чертежи. После очной явки Тривоша с агентом в мастерской портного, шифровка случайно попадает к портному, который сразу же относит ее в НКВД. И таким образом следователь Ларцев с вещественными доказательствами в руках спокойно начинает раскручивать очередное дело... Между тем Кочин и Ксения Лебедева под зорким наблюдением Тривоша отправляются на прогулку в Пушкино. Девушка признается любимому человеку в своей шпионской деятельности и клянется пойти к следователю. Тривошу удается освободиться от свидетельницы, но от Ларцева ему не уйти...





Исходник: DVD5 R5
Тип релиза: DVDRip
Контейнер: AVI
Видео: 704x528 (4:3), 25 fps, XviD ~ 1845 kbps avg, 0.199 bit/pixel
Аудио: 48 kHz, Dolby Digital AC3 2.0, 192 kbps
Раздача от:
Общее
Полное имя : Oshibka.inzhenera.Kochina.1939.DVDRip_[New-team]_by_AVP_Studio.avi
Формат : AVI
Формат/Информация : Audio Video Interleave
Размер файла : 1,46 Гбайт
Продолжительность : 1 ч. 41 м.
Общий поток : 2046 Кбит/сек
Программа кодирования : VirtualDubModRus 1.5.10.2 (build 2542/release)
Библиотека кодирования : VirtualDubMod build 2542/release
Видео
Идентификатор : 0
Формат : MPEG-4 Visual
Профиль формата : Advanced Simple@L5
Параметр BVOP формата : 1
Параметр QPel формата : Нет
Параметр GMC формата : Без точки перехода
Параметр матрицы формата : Выборочная
Идентификатор кодека : XVID
Идентификатор кодека/Подсказка : XviD
Продолжительность : 1 ч. 41 м.
Битрейт : 1845 Кбит/сек
Ширина : 704 пикселя
Высота : 528 пикселей
Соотношение сторон : 4:3
Частота кадров : 25,000 кадров/сек
Цветовое пространство : YUV
Субдискретизация насыщенности : 4:2:0
Битовая глубина : 8 бит
Тип развёртки : Прогрессивная
Метод сжатия : С потерями
Бит/(Пиксели*Кадры) : 0.199
Размер потока : 1,31 Гбайт (90%)
Библиотека кодирования : XviD 73
Аудио
Идентификатор : 1
Формат : AC-3
Формат/Информация : Audio Coding 3
Расширение режима : CM (complete main)
Параметр Endianness формата : Big
Идентификатор кодека : 2000
Продолжительность : 1 ч. 41 м.
Вид битрейта : Постоянный
Битрейт : 192 Кбит/сек
Каналы : 2 канала
Расположение каналов : Front: L R
Частота : 48,0 КГц
Битовая глубина : 16 бит
Метод сжатия : С потерями
Размер потока : 140 Мбайт (9%)
Выравнивание : Разделение по промежуткам
Продолжительность промежутка : 40 мс. (1,00 видеокадр)
Время предзагрузки промежутка : 500 мс





   Похожие торренты   Торрент   Размер 
В этой теме нет новых непрочитанных сообщений. Ошибка инженера Кочина (1939) DVDRip-AVC от New-Team

26 | 10

1.46 ГБ

В этой теме нет новых непрочитанных сообщений. Ошибка инженера Кочина (1939) DVDRip от New-Team

53 | 9

744.44 МБ

В этой теме нет новых непрочитанных сообщений. Ошибка инженера Кочина (1939) DVDRip-AVC

12 | 3

1.97 ГБ

В этой теме нет новых непрочитанных сообщений. Мойдодыр (1939,1954), Тараканище, Федорино горе, От двух до пяти, Ваня и крокодил, Краденое солнце (1939-1984) DVDRip-AVC от New-Team

403 | 40

1.46 ГБ

В этой теме нет новых непрочитанных сообщений. Мойдодыр (1939,1954), Тараканище, Федорино горе, От двух до пяти, Ваня и крокодил, Краденое солнце (1939-1984) DVDRip от New-Team

393 | 26

1.45 ГБ

В этой теме нет новых непрочитанных сообщений. Мойдодыр (1939,1954), Тараканище, Федорино горе, От двух до пяти, Ваня и крокодил, Краденое солнце (1939-1984) DVDRip от New-Team

551 | 30

744.47 МБ

В этой теме нет новых непрочитанных сообщений. Безумный день инженера Баркасова (1982) SATRip от New-Team

23 | 5

2.19 ГБ




Вы не можете начинать темы
Вы не можете отвечать на сообщения
Вы не можете редактировать свои сообщения
Вы не можете удалять свои сообщения
Вы не можете добавлять вложения

Перейти:  
Для Мосгорсуда, Роскомнадзора и рекламодателей: mosgorsud-torrent[собачка]yandex.ru
 Вход
ppkBB3cker v.2 © 2008-2014 @ PPK
[ Time : 0.051s | 18 Queries | GZIP : Off ]

Торрент трекер RUTOR.IN, Не можете зайти на rutor.org? Какой новый адрес рутор? Какое зеркало рутор? Не работает rutor.org и зеркала? Тогда наш торрент специально для вас. Rutor.in неофициальное зеркало rutor. В случае если у Вас заблокирован rutor или вдруг Вы не можете на него зайти, то Вы без труда сможете скачать бесплатно и без рекламы последние новинки кино, игр, сериалов и прочего у нас, на Rutor.in. Не нужно использовать прокси, чтобы зайти на рутор, достаточно воспользоваться нашим ресурсом. Все новые фильмы, игры, сериалы, книги и музыка за 2013 и 2014 годы через торрент бесплатно. Скачивайте фильмы в хорошем качестве, игры для пк, xbox, playstation без регистрации. У нас вы найдете новые Зарубежные сериалы и Русские сериалы 2013, 2014, 2015 годов. Оставайтесь с нами, качайте любимые фильмы, игры, сериалы, книги и музыку.
cron