img image001 image001 image001 image001 image001 image001 image001 image001 image001 image001 image001 image001 image001 image001 image001

Planets Sun Sun Sun
Статистика раздачи
Автор: Nickolas3434 | Размер: 744.93 МБ | Добавлен: 11 ноя 2014
Раздают: 12    Качают: 3
Скачать торрент
Скачать торрент
Описание торрента

СообщениеДобавлено: 11 ноя 2014 

Страна: СССР
Производство: Ленфильм
Жанр: комедия
Год выпуска: 1935
Продолжительность: 01:16:23
Перевод: не требуется
Оригинальная аудиодорожка: русский
Cубтитры: нет
Режиссер: Семен Тимошенко
В ролях:
Анатолий Горюнов, Николай Баталов, Михаил Жаров, Татьяна Гурецкая, Вероника (Нора) Полонская, Николай Мичурин, Наталья Гицерот, Валерий Соловцов...
Описание:
В небольшой городок приезжает новый начальник строительства Зайцев. Здесь работают двое его былых соратников по Красной Армии — директор бумажной фабрики Глинка и начальник лесосплава Лацис. Зайцев ратует за быстрое расширение бумажной фабрики и окружаетсебя группой рвачей. Но, несмотря на давнюю дружбу, после ряда разоблачений вынужден покинуть городок…





Исходник: DVD5 R5
Тип релиза: DVDRip
Контейнер: AVI
Видео: 672x496 (4:3), 25 fps, XviD ~ 1226 kbps avg, 0.147 bit/pixel
Аудио: 48 kHz, MP3 2.0, 128 kbps
Раздача от:
Общее
Полное имя : Tri.tovarishha.1935.DVDRip-745_[New-team]_by_AVP_Studio.avi
Формат : AVI
Формат/Информация : Audio Video Interleave
Размер файла : 745 Мбайт
Продолжительность : 1 ч. 16 м.
Общий поток : 1363 Кбит/сек
Программа кодирования : VirtualDubModRus 1.5.10.2 (build 2542/release)
Библиотека кодирования : VirtualDubMod build 2542/release
Видео
Идентификатор : 0
Формат : MPEG-4 Visual
Профиль формата : Advanced Simple@L5
Параметр BVOP формата : 1
Параметр QPel формата : Нет
Параметр GMC формата : Без точки перехода
Параметр матрицы формата : Выборочная
Идентификатор кодека : XVID
Идентификатор кодека/Подсказка : XviD
Продолжительность : 1 ч. 16 м.
Битрейт : 1226 Кбит/сек
Ширина : 672 пикселя
Высота : 496 пикселей
Соотношение сторон : 4:3
Частота кадров : 25,000 кадров/сек
Цветовое пространство : YUV
Субдискретизация насыщенности : 4:2:0
Битовая глубина : 8 бит
Тип развёртки : Прогрессивная
Метод сжатия : С потерями
Бит/(Пиксели*Кадры) : 0.147
Размер потока : 670 Мбайт (90%)
Библиотека кодирования : XviD 73
Аудио
Идентификатор : 1
Формат : MPEG Audio
Версия формата : Version 1
Профиль формата : Layer 3
Идентификатор кодека : 55
Идентификатор кодека/Подсказка : MP3
Продолжительность : 1 ч. 16 м.
Вид битрейта : Постоянный
Битрейт : 128 Кбит/сек
Каналы : 2 канала
Частота : 48,0 КГц
Метод сжатия : С потерями
Размер потока : 69,9 Мбайт (9%)
Выравнивание : Соединение по промежуткам
Продолжительность промежутка : 40 мс. (1,00 видеокадр)
Время предзагрузки промежутка : 504 мс.
Библиотека кодирования : LAME3.99r
Настройки программы : -m s -V 4 -q 2 -lowpass 17 -b 128





   Похожие торренты   Торрент   Размер 
В этой теме нет новых непрочитанных сообщений. Три товарища (1935) DVDRip от New-Team

50 | 12

1.09 ГБ

В этой теме нет новых непрочитанных сообщений. Три товарища (1935) DVDRip-AVC от New-Team

21 | 9

1.09 ГБ

В этой теме нет новых непрочитанных сообщений. Скандалы Джорджа Уайта 1935 года / George White's 1935 Scandals (1935) DVDRip от egoleshik | P1

1 | 2

1.1 ГБ

В этой теме нет новых непрочитанных сообщений. Честь товарища (1953) DVDRip от New-Team

10 | 14

1.09 ГБ

В этой теме нет новых непрочитанных сообщений. Честь товарища (1953) DVDRip-AVC от New-Team

13 | 8

1.09 ГБ

В этой теме нет новых непрочитанных сообщений. Честь товарища (1953) DVDRip от New-Team

15 | 17

745.37 МБ

В этой теме нет новых непрочитанных сообщений. Три товарища [01-04 из 04] (2012) DVDRip от New-Team | лицензия

173 | 3

3.14 ГБ




Вы не можете начинать темы
Вы не можете отвечать на сообщения
Вы не можете редактировать свои сообщения
Вы не можете удалять свои сообщения
Вы не можете добавлять вложения

Перейти:  
Для Мосгорсуда, Роскомнадзора и рекламодателей: mosgorsud-torrent[собачка]yandex.ru
 Вход
ppkBB3cker v.2 © 2008-2014 @ PPK
[ Time : 4.172s | 16 Queries | GZIP : Off ]

cron