img image001 image001 image001 image001 image001 image001 image001 image001 image001 image001 image001 image001 image001 image001 image001

Planets Sun Sun Sun
Статистика раздачи
Автор: Nickolas3434 | Размер: 1.46 ГБ | Добавлен: 12 ноя 2014
Раздают: 18    Качают: 10
Скачать торрент
Скачать торрент
Описание торрента

СообщениеДобавлено: 12 ноя 2014 

Страна: СССР
Производство: Межрабпомфильм
Жанр: драма
Год выпуска: 1933
Продолжительность: 01:32:03
Перевод: не требуется
Оригинальная аудиодорожка: русский
Cубтитры: нет
Режиссер: Лев Кулешов
В ролях:
Константин Хохлов, Иван Новосельцев, Василий Ковригин, Андрей Файт, Даниил Введенский, Родд Вейланд, О.Раевская, С.Слетов, Александра Хохлова, Галина Кравченко, Петр Галаджев, В.Лопатина, Михаил Доронин, Андрей Горчилин...
Описание:
Главный герой, известный писатель, пребывает в тюрьме. Особых провинностей за ним не числится. Он даже пользуется правом свободного передвижения. Внутри тюрьмы, разумеется. Администрация ценит писателя потому, что, сидя за решеткой, он сочиняет красивые, убаюкивающие историйки со счастливым концом. Читающая публика воспитана на его душещипательных сюжетцах и желает строить по ним свою жизнь. И, что весьма примечательно, едва ли не главным поклонником подобных сочинений является начальник тюрьмы. Свобода, данная писателю в рамках его тюремного бытия, кажется ему достаточной. Он покорен судьбе и не представляет иного существования.





Исходник: DVD5 R5
Тип релиза: DVDRip
Контейнер: AVI
Видео: 656x496 (4:3), 25 fps, XviD ~ 2064 kbps avg, 0.254 bit/pixel
Аудио: 48 kHz, Dolby Digital AC3 2.0, 192 kbps
Раздача от:
Общее
Полное имя : Velikiy.uteshitel.1933.DVDRip_[New-team]_by_AVP_Studio.avi
Формат : AVI
Формат/Информация : Audio Video Interleave
Размер файла : 1,46 Гбайт
Продолжительность : 1 ч. 32 м.
Общий поток : 2265 Кбит/сек
Программа кодирования : VirtualDubModRus 1.5.10.2 (build 2542/release)
Библиотека кодирования : VirtualDubMod build 2542/release
Видео
Идентификатор : 0
Формат : MPEG-4 Visual
Профиль формата : Advanced Simple@L5
Параметр BVOP формата : 1
Параметр QPel формата : Нет
Параметр GMC формата : Без точки перехода
Параметр матрицы формата : Выборочная
Идентификатор кодека : XVID
Идентификатор кодека/Подсказка : XviD
Продолжительность : 1 ч. 32 м.
Битрейт : 2064 Кбит/сек
Ширина : 656 пикселей
Высота : 496 пикселей
Соотношение сторон : 4:3
Частота кадров : 25,000 кадров/сек
Цветовое пространство : YUV
Субдискретизация насыщенности : 4:2:0
Битовая глубина : 8 бит
Тип развёртки : Прогрессивная
Метод сжатия : С потерями
Бит/(Пиксели*Кадры) : 0.254
Размер потока : 1,33 Гбайт (91%)
Библиотека кодирования : XviD 73
Аудио
Идентификатор : 1
Формат : AC-3
Формат/Информация : Audio Coding 3
Расширение режима : CM (complete main)
Параметр Endianness формата : Big
Идентификатор кодека : 2000
Продолжительность : 1 ч. 32 м.
Вид битрейта : Постоянный
Битрейт : 192 Кбит/сек
Каналы : 2 канала
Расположение каналов : Front: L R
Частота : 48,0 КГц
Битовая глубина : 16 бит
Метод сжатия : С потерями
Размер потока : 126 Мбайт (8%)
Выравнивание : Разделение по промежуткам
Продолжительность промежутка : 40 мс. (1,00 видеокадр)
Время предзагрузки промежутка : 500 мс





   Похожие торренты   Торрент   Размер 
В этой теме нет новых непрочитанных сообщений. Великий утешитель (1933) DVDRip от New-Team

2 | 2

744.78 МБ

В этой теме нет новых непрочитанных сообщений. Великий утешитель (1933) DVDRip-AVC от New-Team

19 | 2

1.46 ГБ

В этой теме нет новых непрочитанных сообщений. Окраина (1933) DVDRip от New-Team

36 | 8

1.14 ГБ

В этой теме нет новых непрочитанных сообщений. Окраина (1933) DVDRip от New-Team

3 | 5

743.67 МБ

В этой теме нет новых непрочитанных сообщений. Марионетки (1933) DVDRip от New-Team

5 | 3

743.04 МБ

В этой теме нет новых непрочитанных сообщений. Окраина (1933) DVDRip-AVC от New-Team

26 | 10

1.09 ГБ

В этой теме нет новых непрочитанных сообщений. Марионетки (1933) DVDRip от New-Team

25 | 9

1.45 ГБ




Вы не можете начинать темы
Вы не можете отвечать на сообщения
Вы не можете редактировать свои сообщения
Вы не можете удалять свои сообщения
Вы не можете добавлять вложения

Перейти:  
Для Мосгорсуда, Роскомнадзора и рекламодателей: mosgorsud-torrent[собачка]yandex.ru
 Вход
ppkBB3cker v.2 © 2008-2014 @ PPK
[ Time : 0.045s | 17 Queries | GZIP : Off ]

Торрент трекер RUTOR.IN, Не можете зайти на rutor.org? Какой новый адрес рутор? Какое зеркало рутор? Не работает rutor.org и зеркала? Тогда наш торрент специально для вас. Rutor.in неофициальное зеркало rutor. В случае если у Вас заблокирован rutor или вдруг Вы не можете на него зайти, то Вы без труда сможете скачать бесплатно и без рекламы последние новинки кино, игр, сериалов и прочего у нас, на Rutor.in. Не нужно использовать прокси, чтобы зайти на рутор, достаточно воспользоваться нашим ресурсом. Все новые фильмы, игры, сериалы, книги и музыка за 2013 и 2014 годы через торрент бесплатно. Скачивайте фильмы в хорошем качестве, игры для пк, xbox, playstation без регистрации. У нас вы найдете новые Зарубежные сериалы и Русские сериалы 2013, 2014, 2015 годов. Оставайтесь с нами, качайте любимые фильмы, игры, сериалы, книги и музыку.
cron