img image001 image001 image001 image001 image001 image001 image001 image001 image001 image001 image001 image001 image001 image001 image001

Planets Sun Sun Sun
Статистика раздачи
Автор: Nickolas3434 | Размер: 743.72 МБ | Добавлен: 13 ноя 2014
Раздают: 35    Качают: 4
Скачать торрент
Скачать торрент
Описание торрента

СообщениеДобавлено: 13 ноя 2014 

Страна: СССР
Производство: Студия Горького
Жанр: драма
Год выпуска: 1978
Продолжительность: 1:23:52
Перевод: не требуется
Оригинальная аудиодорожка: русский
Cубтитры: нет
Режиссер: Борис Григорьев
В ролях:
Людмила Нильская, Николай Иванов, Людмила Аринина, Анатолий Ромашин, Марина Левтова. Вячеслав Баранов, Владимир Грамматиков, Анатолий Скорякин, Ольга Топилина...
Описание:
Окончив школу, Лена Кузнецова приехала в Москву и без особых трудностей поступила в пединститут. Став студенткой филфака, она четко сформулировала ближайшую цель — любой ценой достичь материального благополучия и сделать карьеру. Выйдя замуж за старшего научного сотрудника, Лена сразу же получила квартиру, машину и поклонников. А первая ее измена принесла желаемый результат — развод и единоличное владение имуществом…





Исходник: DVD5 R5
Тип релиза: DVDRip
Контейнер: AVI
Видео: 640x480 (4:3), 25 fps, XviD ~ 1109 kbps avg, 0.144 bit/pixel
Аудио: 48 kHz, MP3 2.0, 128 kbps
Раздача от:
Общее
Полное имя : Kuznechik.1978.DVDRip-745_[New-team]_by_AVP_Studio.avi
Формат : AVI
Формат/Информация : Audio Video Interleave
Размер файла : 744 Мбайт
Продолжительность : 1 ч. 23 м.
Общий поток : 1246 Кбит/сек
Программа кодирования : VirtualDubModRus 1.5.10.2 (build 2542/release)
Библиотека кодирования : VirtualDubMod build 2542/release
Видео
Идентификатор : 0
Формат : MPEG-4 Visual
Профиль формата : Advanced Simple@L5
Параметр BVOP формата : 1
Параметр QPel формата : Нет
Параметр GMC формата : Без точки перехода
Параметр матрицы формата : Выборочная
Идентификатор кодека : XVID
Идентификатор кодека/Подсказка : XviD
Продолжительность : 1 ч. 23 м.
Битрейт : 1109 Кбит/сек
Ширина : 640 пикселей
Высота : 480 пикселей
Соотношение сторон : 4:3
Частота кадров : 25,000 кадров/сек
Цветовое пространство : YUV
Субдискретизация насыщенности : 4:2:0
Битовая глубина : 8 бит
Тип развёртки : Прогрессивная
Метод сжатия : С потерями
Бит/(Пиксели*Кадры) : 0.144
Размер потока : 662 Мбайт (89%)
Библиотека кодирования : XviD 73
Аудио
Идентификатор : 1
Формат : MPEG Audio
Версия формата : Version 1
Профиль формата : Layer 3
Идентификатор кодека : 55
Идентификатор кодека/Подсказка : MP3
Продолжительность : 1 ч. 23 м.
Вид битрейта : Постоянный
Битрейт : 128 Кбит/сек
Каналы : 2 канала
Частота : 48,0 КГц
Метод сжатия : С потерями
Размер потока : 76,4 Мбайт (10%)
Выравнивание : Соединение по промежуткам
Продолжительность промежутка : 40 мс. (1,00 видеокадр)
Время предзагрузки промежутка : 504 мс.
Библиотека кодирования : LAME3.99r
Настройки программы : -m s -V 4 -q 2 -lowpass 17 -b 128





   Похожие торренты   Торрент   Размер 
В этой теме нет новых непрочитанных сообщений. Кузнечик (1978) DVDRip-AVC от New-Team

17 | 6

1.46 ГБ

В этой теме нет новых непрочитанных сообщений. Кузнечик (1978) DVDRip от New-Team

35 | 10

1.45 ГБ

В этой теме нет новых непрочитанных сообщений. 31 июня (1978) DVDRip-AVC от New-Team

115 | 17

2.19 ГБ

В этой теме нет новых непрочитанных сообщений. 31 июня (1978) DVDRip от New-Team

81 | 12

1.46 ГБ

В этой теме нет новых непрочитанных сообщений. Крепость (1978) DVDRip от New-Team

78 | 6

743.59 МБ

В этой теме нет новых непрочитанных сообщений. Крепость (1978) DVDRip-AVC от New-Team

74 | 6

744.39 МБ

В этой теме нет новых непрочитанных сообщений. 31 июня (1978) DVDRip от New-Team

53 | 10

2.19 ГБ




Вы не можете начинать темы
Вы не можете отвечать на сообщения
Вы не можете редактировать свои сообщения
Вы не можете удалять свои сообщения
Вы не можете добавлять вложения

Перейти:  
Для Мосгорсуда, Роскомнадзора и рекламодателей: mosgorsud-torrent[собачка]yandex.ru
 Вход
ppkBB3cker v.2 © 2008-2014 @ PPK
[ Time : 0.074s | 17 Queries | GZIP : On ]

Торрент трекер RUTOR.IN, Не можете зайти на rutor.org? Какой новый адрес рутор? Какое зеркало рутор? Не работает rutor.org и зеркала? Тогда наш торрент специально для вас. Rutor.in неофициальное зеркало rutor. В случае если у Вас заблокирован rutor или вдруг Вы не можете на него зайти, то Вы без труда сможете скачать бесплатно и без рекламы последние новинки кино, игр, сериалов и прочего у нас, на Rutor.in. Не нужно использовать прокси, чтобы зайти на рутор, достаточно воспользоваться нашим ресурсом. Все новые фильмы, игры, сериалы, книги и музыка за 2013 и 2014 годы через торрент бесплатно. Скачивайте фильмы в хорошем качестве, игры для пк, xbox, playstation без регистрации. У нас вы найдете новые Зарубежные сериалы и Русские сериалы 2013, 2014, 2015 годов. Оставайтесь с нами, качайте любимые фильмы, игры, сериалы, книги и музыку.
cron