img image001 image001 image001 image001 image001 image001 image001 image001 image001 image001 image001 image001 image001 image001 image001

Planets Sun Sun Sun
Статистика раздачи
Автор: Nickolas3434 | Размер: 1.33 ГБ | Добавлен: 13 ноя 2014
Раздают: 268    Качают: 11
Скачать торрент
Скачать торрент
Описание торрента

СообщениеДобавлено: 13 ноя 2014 

Информация о фильме
Название: Десятка
Год выхода: 2013
Жанр: драма
Режиссер: Владимир Козлов
В ролях: Тимофей Яковец, Екатерина Еникеева, Илья Черных, Степан Гаврилов, Елена Рудковская, Илья Федотов, Игорь Красных, Герман Акимов, Евгений Соболев, Владимир Пашнин
О фильме: «Там, где возникает пустота»
Драма по мотивам одноименной повести Владимира Козлова. Валера подавал большие надежды как футболист, но травма ставит крест на его спортивной карьере, и он, вернувшись в родной город, учится в ПТУ. Окружающие люди — мать, все вечера проводящая у телевизора, девушка Света, лишенная каких-либо амбиций, бывшие одноклассники, которых интересует только криминал, — вряд ли чем-то могут помочь. И, оказавшись чужим в окружающем мире, но не имея своего, Валера совершает иррациональные поступки.

Страна: Россия
Студия: Platzkart Productions
Продолжительность: 01:21:42
Перевод: оригинал
Файл
Кодек: h.264 (MKV)
Качество: WEB-DLRip-AVC
Видео: AVC, 1024 x 432, ~2 035 Kbps
Звук: AC-3, 2 ch, 256 Kbps
Субтитры: нет
Запрещен к просмотру, лицам младше 18 лет!
Семпл
General
Unique ID : 243547670449080328015969121443488263018 (0xB739933C661D2EB6A1497F943B30EB6A)
Complete name : D:Мой архив�2.ФИЛЬМЫ СНГДесятка (2013)Новая папкаDesiatka.2012.WEB-DLRip-AVC.mkv
Format : Matroska
Format version : Version 4 / Version 2
File size : 1.33 GiB
Duration : 1h 21mn
Overall bit rate : 2 337 Kbps
Encoded date : UTC 2014-11-12 12:06:15
Writing application : mkvmerge v7.1.0 ('Good Love') 64bit built on Jul 27 2014 13:06:55
Writing library : libebml v1.3.0 + libmatroska v1.4.1
DURATION : 01:21:42.080000000
NUMBER_OF_FRAMES : 153190
NUMBER_OF_BYTES : 156866560
_STATISTICS_WRITING_APP : mkvmerge v7.1.0 ('Good Love') 64bit built on Jul 27 2014 13:06:55
_STATISTICS_WRITING_DATE_UTC : 2014-11-12 12:06:15
_STATISTICS_TAGS : BPS DURATION NUMBER_OF_FRAMES NUMBER_OF_BYTES
Video
ID : 1
Format : AVC
Format/Info : Advanced Video Codec
Format profile : Main@L4.1
Format settings, CABAC : Yes
Format settings, ReFrames : 4 frames
Codec ID : V_MPEG4/ISO/AVC
Duration : 1h 21mn
Bit rate : 2 035 Kbps
Width : 1 024 pixels
Height : 432 pixels
Display aspect ratio : 2.40:1
Frame rate mode : Constant
Frame rate : 25.000 fps
Color space : YUV
Chroma subsampling : 4:2:0
Bit depth : 8 bits
Scan type : Progressive
Bits/(Pixel*Frame) : 0.184
Stream size : 1.16 GiB (87%)
Language : English
Default : Yes
Forced : No
Audio
ID : 2
Format : AC-3
Format/Info : Audio Coding 3
Mode extension : CM (complete main)
Format settings, Endianness : Big
Codec ID : A_AC3
Duration : 1h 21mn
Bit rate mode : Constant
Bit rate : 256 Kbps
Channel(s) : 2 channels
Channel positions : Front: L R
Sampling rate : 48.0 KHz
Bit depth : 16 bits
Compression mode : Lossy
Stream size : 150 MiB (11%)
Language : Russian
Default : Yes
Forced : No

Релиз от:



   Похожие торренты   Торрент   Размер 
В этой теме нет новых непрочитанных сообщений. Супертюрьма! / Тюряга / Superjail! [s04] (2014) WEB-DLRip от АРХАНГЕЛ | L1

153 | 18

1.15 ГБ

В этой теме нет новых непрочитанных сообщений. Сказки старого пианино [01-08 из 08] (2007-2011) DVDRip, SATRip, Web-DLRip от АРХАНГЕЛ | P1

376 | 50

1.29 ГБ

В этой теме нет новых непрочитанных сообщений. Архангел / Archangel (2013) Android

32 | 3

327.15 МБ

В этой теме нет новых непрочитанных сообщений. Зачётный препод / Fack ju Göhte (2013) HDRip-AVC от АРХАНГЕЛ | L1, A

250 | 31

3.33 ГБ

В этой теме нет новых непрочитанных сообщений. Десятка (2014) WEB-DL 1080p | ATV

296 | 12

2.46 ГБ

В этой теме нет новых непрочитанных сообщений. Десять / Десятка / 10 / Ten (1979) BDRip 1080p | А

32 | 13

7.95 ГБ

В этой теме нет новых непрочитанных сообщений. Лучшая десятка. Вооружение / Top Tens [s01] (2005) IPTVRip | P1

81 | 13

5.32 ГБ




Вы не можете начинать темы
Вы не можете отвечать на сообщения
Вы не можете редактировать свои сообщения
Вы не можете удалять свои сообщения
Вы не можете добавлять вложения

Перейти:  
Для Мосгорсуда, Роскомнадзора и рекламодателей: mosgorsud-torrent[собачка]yandex.ru
 Вход
ppkBB3cker v.2 © 2008-2014 @ PPK
[ Time : 0.049s | 16 Queries | GZIP : Off ]

Торрент трекер RUTOR.IN, Не можете зайти на rutor.org? Какой новый адрес рутор? Какое зеркало рутор? Не работает rutor.org и зеркала? Тогда наш торрент специально для вас. Rutor.in неофициальное зеркало rutor. В случае если у Вас заблокирован rutor или вдруг Вы не можете на него зайти, то Вы без труда сможете скачать бесплатно и без рекламы последние новинки кино, игр, сериалов и прочего у нас, на Rutor.in. Не нужно использовать прокси, чтобы зайти на рутор, достаточно воспользоваться нашим ресурсом. Все новые фильмы, игры, сериалы, книги и музыка за 2013 и 2014 годы через торрент бесплатно. Скачивайте фильмы в хорошем качестве, игры для пк, xbox, playstation без регистрации. У нас вы найдете новые Зарубежные сериалы и Русские сериалы 2013, 2014, 2015 годов. Оставайтесь с нами, качайте любимые фильмы, игры, сериалы, книги и музыку.