img image001 image001 image001 image001 image001 image001 image001 image001 image001 image001 image001 image001 image001 image001 image001

Planets Sun Sun Sun
Статистика раздачи
Автор: Nickolas3434 | Размер: 1.46 ГБ | Добавлен: 16 ноя 2014
Раздают: 3323    Качают: 184
Скачать торрент
Скачать торрент
Описание торрента

СообщениеДобавлено: 16 ноя 2014 


Страна: Россия / Enjoy Movies
Жанр: комедия, фантастика
Год выпуска: 2014
Продолжительность: 01:25:03
Перевод: Не требуется
Cубтитры: нет
Оригинальная аудиодорожка: русский
Режиссер: Георгий Малков
В ролях: Александр Ревва, Павел Деревянко, Татьяна Космачева, Артем Сучков, Максим Коновалов, Эмиль Никогосян, Вадим Цаллати, Мария Сёмкина, Александр Булатов, Раиса Рязанова...
Описание: Они настолько разные, что не должны были пересечься в обычной жизни. Фил — бывшая звезда 90-х, прославившийся в свое время одной единственной песней. Теперь он работает ди-джеем, завидует Олегу Газманову и не выносит ответственности. Петр — врач-карьерист, сухарь и педант. Записывает на диктофон свои планы на день, боится пригласить девушку на свидание и знать не знает кто такой Газманов. После электрошока они начинают испытывать чувства друг друга. Когда одному больно, то от боли вздрагивает и другой, когда одному из них страшно, то пугается и второй. Смеется один, непроизвольный смех у другого. Веселая жизнь и острые эмоции Фила рушат сначала системную размеренную работу Пети, а затем появляется проблема посерьезнее, когда вслед за Петей в его девушку влюбляется и Фил.

Качество: DVDRip / DVD5 R5 от «CD Land»
Формат: AVI
Видео: 720x384 (1.85:1), 23.976 fps, XviD, ~1995 kbps avg, 0.289 bit/pix
Аудио: 48 kHz, Dolby AC3, 6 ch, 448 kbps, русский
Раздача от:
General
Format : AVI
Format/Info : Audio Video Interleave
File size : 1.46 GiB
Duration : 1h 25mn
Overall bit rate : 2 452 Kbps
Writing application : VirtualDubMod 1.5.10.3 | www.virtualdub-fr.org || (build 2550/release)
Writing library : VirtualDubMod build 2550/release
Video
ID : 0
Format : MPEG-4 Visual
Format profile : Advanced Simple@L5
Format settings, BVOP : 1
Format settings, QPel : No
Format settings, GMC : No warppoints
Format settings, Matrix : Custom
Codec ID : XVID
Codec ID/Hint : XviD
Duration : 1h 25mn
Bit rate : 1 995 Kbps
Width : 720 pixels
Height : 384 pixels
Display aspect ratio : 1.85:1
Frame rate : 25.000 fps
Color space : YUV
Chroma subsampling : 4:2:0
Bit depth : 8 bits
Scan type : Progressive
Compression mode : Lossy
Bits/(Pixel*Frame) : 0.289
Stream size : 1.19 GiB (81%)
Writing library : XviD 73
Audio
ID : 1
Format : AC-3
Format/Info : Audio Coding 3
Mode extension : CM (complete main)
Format settings, Endianness : Big
Codec ID : 2000
Duration : 1h 25mn
Bit rate mode : Constant
Bit rate : 448 Kbps
Channel(s) : 6 channels
Channel positions : Front: L C R, Side: L R, LFE
Sampling rate : 48.0 KHz
Bit depth : 16 bits
Compression mode : Lossy
Stream size : 273 MiB (18%)
Alignment : Split accross interleaves
Interleave, duration : 40 ms (1.00 video frame)
Interleave, preload duration : 500 ms



/torrent/387073/
Видео примерно одинаковое. Только картина у меня немного полнее.
Аудио: http://screenshotcomparison.com/comparison/100107



   Похожие торренты   Торрент   Размер 
В этой теме нет новых непрочитанных сообщений. Смешанные чувства (2014) DVDRip-AVC от New-Team | лицензия

1463 | 62

1.46 ГБ

В этой теме нет новых непрочитанных сообщений. Смешанные чувства (2014) DVDRip от ivandubskoj | Лицензия

1150 | 63

746.26 МБ

В этой теме нет новых непрочитанных сообщений. Смешанные чувства (2014) DVD-5 | Лицензия

1644 | 125

4 ГБ

В этой теме нет новых непрочитанных сообщений. Смешанные чувства (2014) WEBRip

9057 | 486

1.37 ГБ

В этой теме нет новых непрочитанных сообщений. Смешанные чувства (2014) WEBRip

1132 | 79

699.78 МБ

В этой теме нет новых непрочитанных сообщений. Смешанные чувства (2014) DVB от MediaClub

2350 | 150

2.66 ГБ

В этой теме нет новых непрочитанных сообщений. Смешанные чувства (2014) WEB-DLRip

2114 | 116

1.37 ГБ




Вы не можете начинать темы
Вы не можете отвечать на сообщения
Вы не можете редактировать свои сообщения
Вы не можете удалять свои сообщения
Вы не можете добавлять вложения

Перейти:  
Для Мосгорсуда, Роскомнадзора и рекламодателей: mosgorsud-torrent[собачка]yandex.ru
 Вход
ppkBB3cker v.2 © 2008-2014 @ PPK
[ Time : 0.100s | 15 Queries | GZIP : Off ]

Торрент трекер RUTOR.IN, Не можете зайти на rutor.org? Какой новый адрес рутор? Какое зеркало рутор? Не работает rutor.org и зеркала? Тогда наш торрент специально для вас. Rutor.in неофициальное зеркало rutor. В случае если у Вас заблокирован rutor или вдруг Вы не можете на него зайти, то Вы без труда сможете скачать бесплатно и без рекламы последние новинки кино, игр, сериалов и прочего у нас, на Rutor.in. Не нужно использовать прокси, чтобы зайти на рутор, достаточно воспользоваться нашим ресурсом. Все новые фильмы, игры, сериалы, книги и музыка за 2013 и 2014 годы через торрент бесплатно. Скачивайте фильмы в хорошем качестве, игры для пк, xbox, playstation без регистрации. У нас вы найдете новые Зарубежные сериалы и Русские сериалы 2013, 2014, 2015 годов. Оставайтесь с нами, качайте любимые фильмы, игры, сериалы, книги и музыку.