img image001 image001 image001 image001 image001 image001 image001 image001 image001 image001 image001 image001 image001 image001 image001

Planets Sun Sun Sun
Статистика раздачи
Автор: Nickolas3434 | Размер: 746.26 МБ | Добавлен: 16 ноя 2014
Раздают: 1150    Качают: 63
Скачать торрент
Скачать торрент
Описание торрента

СообщениеДобавлено: 16 ноя 2014 

Информация о фильме
Название: Смешанные чувства
Оригинальное название: Смешанные чувства
Год выхода: 2014
Жанр: Комедия, фантастика
Режиссёр: Георгий Малков
В ролях: Александр Ревва, Павел Деревянко, Татьяна Космачева, Артем Сучков, Максим Коновалов, Эмиль Никогосян, Вадим Цаллати, Мария Сёмкина, Александр Булатов, Раиса Рязанова
О фильме: Они настолько разные, что не должны были пересечься в обычной жизни. Фил — бывшая звезда 90-х, прославившийся в свое время одной единственной песней. Теперь он работает ди-джеем, завидует Олегу Газманову и не выносит ответственности. Петр — врач-карьерист, сухарь и педант. Записывает на диктофон свои планы на день, боится пригласить девушку на свидание и знать не знает кто такой Газманов. После электрошока они начинают испытывать чувства друг друга. Когда одному больно, то от боли вздрагивает и другой, когда одному из них страшно, то пугается и второй. Смеется один, непроизвольный смех у другого. Веселая жизнь и острые эмоции Фила рушат сначала системную размеренную работу Пети, а затем появляется проблема посерьезнее, когда вслед за Петей в его девушку влюбляется и Фил.

Выпущено: Россия, Enjoy Movies
Продолжительность: 01:25:03
Перевод: Не требуется

Файл
Формат: AVI
Качество: DVDRip [Исходник: DVD-5]
Видео: XviD, 656x352 (1.864), 1090 Кбит/с, 25 кадр/с
Аудио: Русский, MP3, 48000 Гц, 128 Кбит/с, 2 канала (Стерео)
Код:
General
Complete name                    : Smeshannye.chuvstva.2014.DVDRip.745MB.avi
Format                           : AVI
Format/Info                      : Audio Video Interleave
File size                        : 746 MiB
Duration                         : 1h 25mn
Overall bit rate                 : 1 227 Kbps
Movie name                       : Смешанные чувства (2014) DVDRip
Genre                            :  Комедия, фантастика
Recorded date                    : 15.11.2014
Writing application              : VirtualDubMod 1.5.10.3 (build 2550/release)
Writing library                  : VirtualDubMod build 2550/release
Copyright                        : rip by ivandubskoj
Video
ID                               : 0
Format                           : MPEG-4 Visual
Format profile                   : Advanced Simple@L5
Format settings, BVOP            : 1
Format settings, QPel            : No
Format settings, GMC             : No warppoints
Format settings, Matrix          : Default (MPEG)
Codec ID                         : XVID
Codec ID/Hint                    : XviD
Duration                         : 1h 25mn
Bit rate                         : 1 089 Kbps
Width                            : 656 pixels
Height                           : 352 pixels
Display aspect ratio             : 1.864
Frame rate                       : 25.000 fps
Color space                      : YUV
Chroma subsampling               : 4:2:0
Bit depth                        : 8 bits
Scan type                        : Progressive
Compression mode                 : Lossy
Bits/(Pixel*Frame)               : 0.189
Stream size                      : 662 MiB (89%)
Writing library                  : XviD 73
Audio
ID                               : 1
Format                           : MPEG Audio
Format version                   : Version 1
Format profile                   : Layer 3
Codec ID                         : 55
Codec ID/Hint                    : MP3
Duration                         : 1h 25mn
Bit rate mode                    : Constant
Bit rate                         : 128 Kbps
Channel(s)                       : 2 channels
Sampling rate                    : 48.0 KHz
Compression mode                 : Lossy
Stream size                      : 77.9 MiB (10%)
Alignment                        : Aligned on interleaves
Interleave, duration             : 40 ms (1.00 video frame)
Interleave, preload duration     : 504 ms
Title                            : Russian
Writing library                  : LAME3.99r
Encoding settings                : -m s -V 4 -q 0 -lowpass 17 -b 128



Автор рипа - ivandubskoj



   Похожие торренты   Торрент   Размер 
В этой теме нет новых непрочитанных сообщений. Смешанные чувства (2014) DVDRip от New-Team | лицензия

3307 | 183

1.46 ГБ

В этой теме нет новых непрочитанных сообщений. Смешанные чувства (2014) DVDRip-AVC от New-Team | лицензия

1441 | 60

1.46 ГБ

В этой теме нет новых непрочитанных сообщений. Смешанные чувства (2014) DVD-5 | Лицензия

1644 | 125

4 ГБ

В этой теме нет новых непрочитанных сообщений. Смешанные чувства (2014) WEBRip

9057 | 486

1.37 ГБ

В этой теме нет новых непрочитанных сообщений. Смешанные чувства (2014) WEBRip

1132 | 79

699.78 МБ

В этой теме нет новых непрочитанных сообщений. Смешанные чувства (2014) WEB-DLRip

2114 | 116

1.37 ГБ

В этой теме нет новых непрочитанных сообщений. Смешанные чувства (2014) DVB от MediaClub

2350 | 150

2.66 ГБ




Вы не можете начинать темы
Вы не можете отвечать на сообщения
Вы не можете редактировать свои сообщения
Вы не можете удалять свои сообщения
Вы не можете добавлять вложения

Перейти:  
Для Мосгорсуда, Роскомнадзора и рекламодателей: mosgorsud-torrent[собачка]yandex.ru
 Вход
ppkBB3cker v.2 © 2008-2014 @ PPK
[ Time : 0.027s | 16 Queries | GZIP : Off ]

cron