img image001 image001 image001 image001 image001 image001 image001 image001 image001 image001 image001 image001 image001 image001 image001

Planets Sun Sun Sun
Статистика раздачи
Автор: Nickolas3434 | Размер: 2.15 ГБ | Добавлен: 16 ноя 2014
Раздают: 1546    Качают: 44
Скачать торрент
Скачать торрент
Описание торрента

СообщениеДобавлено: 16 ноя 2014 

Информация о фильме
Оригинальное название: Кино про Алексеева
Год выхода: 2014
Жанр: Драма
Режиссер: Михаил Сегал
В ролях: Александр Збруев, Алексей Капитонов, Татьяна Майст, Ксения Радченко, Денис Фомин, Светлана Первушина, Анастасия Попкова, Дмитрий Гудочкин, Иван Звягинцев, Андрей Макаревич
О фильме:
Фильм-путешествие по удивительной жизни Алексеева. Он пил чай с Тарковским, попал в КГБ из-за Гагарина, конкурировал с Калашниковым и Высоцким. Однажды он узнаёт о себе нечто большее, чем знал и мог предполагать: о своём таланте, о следе, который оставил в судьбах других людей. Жизнь можно прожить заново, если тебя кто-то любит.

Страна: Россия
Студия: Новые люди
Продолжительность: 01:30:49
Файл
Качество: DVB
Видео: MPEG-2, 2582 Кбит/с, 720x576@1024x576
Звук: Русский (АС3, 6 ch, 448 Кбит/с) / (MP2, 2 ch, 192 Кбит/с)
Семпл


Общее
Идентификатор : 18 (0x12)
Полное имя : Kino.pro.Alekseeva.2014.DVB.MediaClub.ts
Формат : MPEG-TS
Размер файла : 2,15 Гбайт
Продолжительность : 1 ч. 30 м.
Режим общего битрейта : Переменный
Общий поток : 3397 Кбит/сек
Видео
Идентификатор : 321 (0x141)
Идентификатор меню : 18101 (0x46B5)
Формат : MPEG Video
Версия формата : Version 2
Профиль формата : Main@Main
Параметр BVOP формата : Да
Параметр матрицы формата : Выборочная
Параметр GOP формата : M=3, N=36
Идентификатор кодека : 2
Продолжительность : 1 ч. 30 м.
Вид битрейта : Переменный
Битрейт : 2582 Кбит/сек
Максимальный битрейт : 15,0 Мбит/сек
Ширина : 720 пикселей
Высота : 576 пикселей
Соотношение сторон : 16:9
Частота кадров : 25,000 кадров/сек
Стандарт вещания : PAL
Цветовое пространство : YUV
Субдискретизация насыщенности : 4:2:0
Битовая глубина : 8 бит
Тип развёртки : Чересстрочная
Порядок развёртки : Верхнее поле первое
Метод сжатия : С потерями
Бит/(Пиксели*Кадры) : 0.249
Размер потока : 1,64 Гбайт (76%)
Аудио #1
Идентификатор : 401 (0x191)
Идентификатор меню : 18101 (0x46B5)
Формат : MPEG Audio
Версия формата : Version 1
Профиль формата : Layer 2
Идентификатор кодека : 4
Продолжительность : 1 ч. 30 м.
Вид битрейта : Постоянный
Битрейт : 192 Кбит/сек
Каналы : 2 канала
Частота : 48,0 КГц
Метод сжатия : С потерями
Задержка видео : -795 мс.
Размер потока : 125 Мбайт (6%)
Язык : Russian
Язык, дополнительно : Clean effects
Аудио #2
Идентификатор : 421 (0x1A5)
Идентификатор меню : 18101 (0x46B5)
Формат : AC-3
Формат/Информация : Audio Coding 3
Расширение режима : CM (complete main)
Параметр Endianness формата : Big
Идентификатор кодека : 6
Продолжительность : 1 ч. 30 м.
Вид битрейта : Постоянный
Битрейт : 448 Кбит/сек
Каналы : 6 каналов
Расположение каналов : Front: L C R, Side: L R, LFE
Частота : 48,0 КГц
Битовая глубина : 16 бит
Метод сжатия : С потерями
Задержка видео : -810 мс.
Размер потока : 291 Мбайт (13%)
Язык : Russian
Язык, дополнительно : Clean effects
Меню
Идентификатор : 1801 (0x709)
Идентификатор меню : 18101 (0x46B5)
Продолжительность : 1 ч. 30 м.
Список : 321 (0x141) (MPEG Video) / 401 (0x191) (MPEG Audio, Russian) / 421 (0x1A5) (AC-3, Russian)
Язык : / Russian / Russian

Кинотавр, 2014 год
Номинации (1): Главный приз

Релиз от:



   Похожие торренты   Торрент   Размер 
В этой теме нет новых непрочитанных сообщений. Кино про Алексеева (2014) SATRip от MediaClub

705 | 20

1.46 ГБ

В этой теме нет новых непрочитанных сообщений. Кино про Алексеева (2014) WEB-DL 720p

145 | 7

2.83 ГБ

В этой теме нет новых непрочитанных сообщений. Кино про Алексеева (2014) DVDRip | Лицензия

645 | 28

1.46 ГБ

В этой теме нет новых непрочитанных сообщений. Кино про Алексеева (2014) SATRip от Scarabey

168 | 8

738.91 МБ

В этой теме нет новых непрочитанных сообщений. Кино про Алексеева (2014) SATRip от Scarabey

294 | 15

1.45 ГБ

В этой теме нет новых непрочитанных сообщений. Кино про Алексеева (2014) WEB-DLRip от Scarabey | iTunes

502 | 12

1.44 ГБ

В этой теме нет новых непрочитанных сообщений. Кино про Алексеева (2014) DVDRip-AVC от ExKinoRay | Лицензия

221 | 14

1.49 ГБ




Вы не можете начинать темы
Вы не можете отвечать на сообщения
Вы не можете редактировать свои сообщения
Вы не можете удалять свои сообщения
Вы не можете добавлять вложения

Перейти:  
Для Мосгорсуда, Роскомнадзора и рекламодателей: mosgorsud-torrent[собачка]yandex.ru
 Вход
ppkBB3cker v.2 © 2008-2014 @ PPK
[ Time : 0.022s | 16 Queries | GZIP : Off ]

Торрент трекер RUTOR.IN, Не можете зайти на rutor.org? Какой новый адрес рутор? Какое зеркало рутор? Не работает rutor.org и зеркала? Тогда наш торрент специально для вас. Rutor.in неофициальное зеркало rutor. В случае если у Вас заблокирован rutor или вдруг Вы не можете на него зайти, то Вы без труда сможете скачать бесплатно и без рекламы последние новинки кино, игр, сериалов и прочего у нас, на Rutor.in. Не нужно использовать прокси, чтобы зайти на рутор, достаточно воспользоваться нашим ресурсом. Все новые фильмы, игры, сериалы, книги и музыка за 2013 и 2014 годы через торрент бесплатно. Скачивайте фильмы в хорошем качестве, игры для пк, xbox, playstation без регистрации. У нас вы найдете новые Зарубежные сериалы и Русские сериалы 2013, 2014, 2015 годов. Оставайтесь с нами, качайте любимые фильмы, игры, сериалы, книги и музыку.