img image001 image001 image001 image001 image001 image001 image001 image001 image001 image001 image001 image001 image001 image001 image001

Planets Sun Sun Sun
Статистика раздачи
Автор: Nickolas3434 | Размер: 1.46 ГБ | Добавлен: 16 ноя 2014
Раздают: 705    Качают: 20
Скачать торрент
Скачать торрент
Описание торрента

СообщениеДобавлено: 16 ноя 2014 

Информация о фильме
Оригинальное название: Кино про Алексеева
Год выхода: 2014
Жанр: Драма
Режиссер: Михаил Сегал
В ролях: Александр Збруев, Алексей Капитонов, Татьяна Майст, Ксения Радченко, Денис Фомин, Светлана Первушина, Анастасия Попкова, Дмитрий Гудочкин, Иван Звягинцев, Андрей Макаревич
О фильме:
Фильм-путешествие по удивительной жизни Алексеева. Он пил чай с Тарковским, попал в КГБ из-за Гагарина, конкурировал с Калашниковым и Высоцким. Однажды он узнаёт о себе нечто большее, чем знал и мог предполагать: о своём таланте, о следе, который оставил в судьбах других людей. Жизнь можно прожить заново, если тебя кто-то любит.

Страна: Россия
Студия: Новые люди
Продолжительность: 01:30:49
Файл
Кодек: XviD
Качество: SATRip
Видео: 1843 Кбит/с, 720x304, 25.000 кадр/с
Звук: (АС3, 6 ch, 448 Кбит/с)
Семпл

Общее
Полное имя : Kino.pro.Alekseeva.2014.SATRip.MediaClub.avi
Формат : AVI
Формат/Информация : Audio Video Interleave
Размер файла : 1,46 Гбайт
Продолжительность : 1 ч. 30 м.
Общий поток : 2300 Кбит/сек
Название фильма : MediaClub
Программа кодирования : VirtualDubMod 1.5.10.2 (build 2540/release)
Библиотека кодирования : VirtualDubMod build 2540/release
Видео
Идентификатор : 0
Формат : MPEG-4 Visual
Профиль формата : Advanced Simple@L5
Параметр BVOP формата : 2
Параметр QPel формата : Нет
Параметр GMC формата : Без точки перехода
Параметр матрицы формата : Default (MPEG)
Идентификатор кодека : XVID
Идентификатор кодека/Подсказка : XviD
Продолжительность : 1 ч. 30 м.
Битрейт : 1843 Кбит/сек
Ширина : 720 пикселей
Высота : 304 пикселя
Соотношение сторон : 2,35:1
Частота кадров : 25,000 кадров/сек
Цветовое пространство : YUV
Субдискретизация насыщенности : 4:2:0
Битовая глубина : 8 бит
Тип развёртки : Прогрессивная
Метод сжатия : С потерями
Бит/(Пиксели*Кадры) : 0.337
Размер потока : 1,17 Гбайт (80%)
Библиотека кодирования : XviD 65
Аудио
Идентификатор : 1
Формат : AC-3
Формат/Информация : Audio Coding 3
Расширение режима : CM (complete main)
Параметр Endianness формата : Big
Идентификатор кодека : 2000
Продолжительность : 1 ч. 30 м.
Вид битрейта : Постоянный
Битрейт : 448 Кбит/сек
Каналы : 6 каналов
Расположение каналов : Front: L C R, Side: L R, LFE
Частота : 48,0 КГц
Битовая глубина : 16 бит
Метод сжатия : С потерями
Размер потока : 291 Мбайт (19%)
Выравнивание : Разделение по промежуткам
Продолжительность промежутка : 40 мс. (1,00 видеокадр)
Время предзагрузки промежутка : 500 мс.

Кинотавр, 2014 год
Номинации (1): Главный приз

Релиз от:



   Похожие торренты   Торрент   Размер 
В этой теме нет новых непрочитанных сообщений. Кино про Алексеева (2014) DVB от MediaClub

1546 | 44

2.15 ГБ

В этой теме нет новых непрочитанных сообщений. Кино про Алексеева (2014) SATRip от Scarabey

168 | 8

738.91 МБ

В этой теме нет новых непрочитанных сообщений. Кино про Алексеева (2014) SATRip от Scarabey

294 | 15

1.45 ГБ

В этой теме нет новых непрочитанных сообщений. Кино про Алексеева (2014) WEB-DL 720p

145 | 7

2.83 ГБ

В этой теме нет новых непрочитанных сообщений. Кино про Алексеева (2014) DVDRip | Лицензия

645 | 28

1.46 ГБ

В этой теме нет новых непрочитанных сообщений. Кино про Алексеева (2014) DVDRip-AVC от ExKinoRay | Лицензия

221 | 14

1.49 ГБ

В этой теме нет новых непрочитанных сообщений. Кино про Алексеева (2014) WEB-DLRip от Scarabey | iTunes

73 | 7

743.87 МБ




Вы не можете начинать темы
Вы не можете отвечать на сообщения
Вы не можете редактировать свои сообщения
Вы не можете удалять свои сообщения
Вы не можете добавлять вложения

Перейти:  
Для Мосгорсуда, Роскомнадзора и рекламодателей: mosgorsud-torrent[собачка]yandex.ru
 Вход
ppkBB3cker v.2 © 2008-2014 @ PPK
[ Time : 0.036s | 15 Queries | GZIP : On ]

Торрент трекер RUTOR.IN, Не можете зайти на rutor.org? Какой новый адрес рутор? Какое зеркало рутор? Не работает rutor.org и зеркала? Тогда наш торрент специально для вас. Rutor.in неофициальное зеркало rutor. В случае если у Вас заблокирован rutor или вдруг Вы не можете на него зайти, то Вы без труда сможете скачать бесплатно и без рекламы последние новинки кино, игр, сериалов и прочего у нас, на Rutor.in. Не нужно использовать прокси, чтобы зайти на рутор, достаточно воспользоваться нашим ресурсом. Все новые фильмы, игры, сериалы, книги и музыка за 2013 и 2014 годы через торрент бесплатно. Скачивайте фильмы в хорошем качестве, игры для пк, xbox, playstation без регистрации. У нас вы найдете новые Зарубежные сериалы и Русские сериалы 2013, 2014, 2015 годов. Оставайтесь с нами, качайте любимые фильмы, игры, сериалы, книги и музыку.