img image001 image001 image001 image001 image001 image001 image001 image001 image001 image001 image001 image001 image001 image001 image001

Planets Sun Sun Sun
Статистика раздачи
Автор: Nickolas3434 | Размер: 1.46 ГБ | Добавлен: 16 ноя 2014
Раздают: 1744    Качают: 64
Скачать торрент
Скачать торрент
Описание торрента

СообщениеДобавлено: 16 ноя 2014 

Информация о фильме
Название: Корпоратив
Оригинальное название: Корпоратив
Год выхода: 2014
Жанр: Комедия, детектив
Режиссёр: Олег Асадулин
В ролях: Николай Наумов, Владимир Толоконников, Мирослава Карпович, Андрей Федорцов, Аристарх Венес, Марина Федункив, Михаил Башкатов, Максим Виторган, Сергей Белоголовцев, Роман Юнусов
О фильме: Игорь - старший менеджер в мебельном салоне, мечтающий о повышении. На следующий день после корпоративной вечеринки он обнаруживает, что салон полностью разгромлен. Сотрудники утверждают, что когда они уходили, всё было в порядке. Игоря это не устраивает, ведь теперь на кону его карьера. Пытаясь выяснить, что же произошло, Игорь узнаёт шокирующие подробности о ночных приключениях своих коллег...

Выпущено: Россия, Enjoy Movies
Продолжительность: 01:25:10
Перевод: Не требуется
Файл
Качество: DVDRip [Исходник DVD-5]
Видео: XviD, 1999 Кбит/с, 720x384 (1.875), 25 кадр/с
Аудио: Русский, Dolby AC3, 48000 Гц, 448 Кбит/с, 6 каналов (5.1)
Субтитры: Нет

General
Complete name : Korporativ.2014.O.DVDRip.1.46GB.ELEKTRI4KA.avi
Format : AVI
Format/Info : Audio Video Interleave
File size : 1.46 GiB
Duration : 1h 25mn
Overall bit rate : 2 457 Kbps
Movie name : Korporativ.2014.O.DVDRip.1.46GB.ELEKTRI4KA
Director : TimeMashine
Writing application : VirtualDubMod 1.5.10.3 | www.virtualdub-fr.org || (build 2550/release)
Copyright : uniongang.tv
Video
ID : 0
Format : MPEG-4 Visual
Format profile : Advanced Simple@L5
Format settings, BVOP : 3
Format settings, QPel : No
Format settings, GMC : No warppoints
Format settings, Matrix : Custom
Codec ID : XVID
Codec ID/Hint : XviD
Duration : 1h 25mn
Bit rate : 1 999 Kbps
Width : 720 pixels
Height : 384 pixels
Display aspect ratio : 1.875
Frame rate : 25.000 fps
Color space : YUV
Chroma subsampling : 4:2:0
Bit depth : 8 bits
Scan type : Progressive
Compression mode : Lossy
Bits/(Pixel*Frame) : 0.289
Stream size : 1.19 GiB (81%)
Writing library : XviD 1.2.1 (UTC 2008-12-04)
Audio
ID : 1
Format : AC-3
Format/Info : Audio Coding 3
Mode extension : CM (complete main)
Codec ID : 2000
Duration : 1h 25mn
Bit rate mode : Constant
Bit rate : 448 Kbps
Channel(s) : 6 channels
Channel positions : Front: L C R, Side: L R, LFE
Sampling rate : 48.0 KHz
Bit depth : 16 bits
Compression mode : Lossy
Stream size : 273 MiB (18%)
Alignment : Split accross interleaves
Interleave, duration : 40 ms (1.00 video frame)
Interleave, preload duration : 500 ms


Релиз от:



   Похожие торренты   Торрент   Размер 
В этой теме нет новых непрочитанных сообщений. Корпоратив (2014) DVDRip | Лицензия

1283 | 240

744.7 МБ

В этой теме нет новых непрочитанных сообщений. Корпоратив (2014) DVDRip от ivandubskoj | Лицензия

7436 | 489

1.46 ГБ

В этой теме нет новых непрочитанных сообщений. Корпоратив (2014) DVDRip-AVC от ExKinoRay

799 | 51

744.55 МБ

В этой теме нет новых непрочитанных сообщений. Корпоратив (2014) WEBRip

15158 | 929

1.37 ГБ

В этой теме нет новых непрочитанных сообщений. Корпоратив (2014) WEB-DL 1080р

269 | 47

3.31 ГБ

В этой теме нет новых непрочитанных сообщений. Корпоратив (2014) WEBRip

1547 | 33

699.3 МБ

В этой теме нет новых непрочитанных сообщений. Корпоратив (2014) WEB-DL 720p

2260 | 107

2.71 ГБ




Вы не можете начинать темы
Вы не можете отвечать на сообщения
Вы не можете редактировать свои сообщения
Вы не можете удалять свои сообщения
Вы не можете добавлять вложения

Перейти:  
Для Мосгорсуда, Роскомнадзора и рекламодателей: mosgorsud-torrent[собачка]yandex.ru
 Вход
ppkBB3cker v.2 © 2008-2014 @ PPK
[ Time : 0.055s | 15 Queries | GZIP : Off ]
CGP output time : 0.022s | 5 Queries | GZIP : Off

Торрент трекер RUTOR.IN, Не можете зайти на rutor.org? Какой новый адрес рутор? Какое зеркало рутор? Не работает rutor.org и зеркала? Тогда наш торрент специально для вас. Rutor.in неофициальное зеркало rutor. В случае если у Вас заблокирован rutor или вдруг Вы не можете на него зайти, то Вы без труда сможете скачать бесплатно и без рекламы последние новинки кино, игр, сериалов и прочего у нас, на Rutor.in. Не нужно использовать прокси, чтобы зайти на рутор, достаточно воспользоваться нашим ресурсом. Все новые фильмы, игры, сериалы, книги и музыка за 2013 и 2014 годы через торрент бесплатно. Скачивайте фильмы в хорошем качестве, игры для пк, xbox, playstation без регистрации. У нас вы найдете новые Зарубежные сериалы и Русские сериалы 2013, 2014, 2015 годов. Оставайтесь с нами, качайте любимые фильмы, игры, сериалы, книги и музыку.