img image001 image001 image001 image001 image001 image001 image001 image001 image001 image001 image001 image001 image001 image001 image001

Planets Sun Sun Sun
Статистика раздачи
Автор: Nickolas3434 | Размер: 1.47 ГБ | Добавлен: 18 ноя 2014
Раздают: 514    Качают: 60
Скачать торрент
Скачать торрент
Описание торрента

СообщениеДобавлено: 18 ноя 2014 

Информация о фильме
Название: Райский уголок
Оригинальное название: Райский уголок
Год выхода: 2013
Жанр: Мелодрама, драма
Режиссёр: Владимир Дмитриевский
В ролях: Наталия Антонова, Андрей Биланов, Кира Бузникова, Елизавета Зарубина, Полина Артюхина, Егор Лучишкин, Наталья Юнникова, Ольга Крупина, Константин Третьяков, А. Богдасаров
О фильме: В жизни тридцатипятилетней Жени есть все: муж, дети, дом в элитном поселке «Райский уголок». Но оказывается, что всё это только видимость. У Сергея есть своя интенсивная личная жизнь, в которой для Жени остаётся всё меньше места...

Выпущено: Россия, Киностудия "Маркес", Кинокомпания "Иллюзион"
Продолжительность: 01:29:56
Перевод: Не требуется
Файл
Качество: HDTVRip [Исходник: HDTV (1080i)]
Видео: XviD, 720x400 (16:9), 2135 Кбит/с, 25 кадр/с
Аудио: Русский, Dolby AC3, 48000 Гц, 192 Кбит/с, 2 канала (Стерео)
Субтитры: Нет

General
Complete name : Rayskiy.ugolok.2013.HDTVRip.avi
Format : AVI
Format/Info : Audio Video Interleave
File size : 1.47 GiB
Duration : 1h 29mn
Overall bit rate : 2 335 Kbps
Movie name : Райский уголок (2013) HDTVRip
Genre : Мелодрама, драма
Recorded date : 16.11.2014
Writing application : VirtualDubMod 1.5.10.3 (build 2550/release)
Writing library : VirtualDubMod build 2550/release
Copyright : rip by ivandubskoj
Video
ID : 0
Format : MPEG-4 Visual
Format profile : Advanced Simple@L5
Format settings, BVOP : 1
Format settings, QPel : No
Format settings, GMC : No warppoints
Format settings, Matrix : Default (MPEG)
Codec ID : XVID
Codec ID/Hint : XviD
Duration : 1h 29mn
Bit rate : 2 135 Kbps
Width : 720 pixels
Height : 400 pixels
Display aspect ratio : 16:9
Frame rate : 25.000 fps
Color space : YUV
Chroma subsampling : 4:2:0
Bit depth : 8 bits
Scan type : Progressive
Compression mode : Lossy
Bits/(Pixel*Frame) : 0.297
Stream size : 1.34 GiB (91%)
Writing library : XviD 73
Audio
ID : 1
Format : AC-3
Format/Info : Audio Coding 3
Mode extension : CM (complete main)
Codec ID : 2000
Duration : 1h 29mn
Bit rate mode : Constant
Bit rate : 192 Kbps
Channel(s) : 2 channels
Channel positions : Front: L R
Sampling rate : 48.0 KHz
Bit depth : 16 bits
Compression mode : Lossy
Stream size : 124 MiB (8%)
Alignment : Split accross interleaves
Interleave, duration : 64 ms (1.60 video frames)
Interleave, preload duration : 500 ms
Title : Russian


Автор рипа - ivandubskoj



   Похожие торренты   Торрент   Размер 
В этой теме нет новых непрочитанных сообщений. Райский уголок (2013) HDTVRip от ivandubskoj

336 | 23

746.29 МБ

В этой теме нет новых непрочитанных сообщений. Райский уголок (2013) HDTVRip от Files-x

225 | 12

1.37 ГБ

В этой теме нет новых непрочитанных сообщений. Райский уголок (2009) DVDRip

27 | 3

1.37 ГБ

В этой теме нет новых непрочитанных сообщений. Кровосмешение (Райский уголок) (2009) DVDRip

2 | 3

1.37 ГБ

В этой теме нет новых непрочитанных сообщений. Везучая (2013) HDTVRip от ivandubskoj

242 | 12

720.97 МБ

В этой теме нет новых непрочитанных сообщений. Проверка на любовь (2013) HDTVRip от ivandubskoj

321 | 32

745.07 МБ

В этой теме нет новых непрочитанных сообщений. Здрасьте, я ваш папа! (2013) HDTVRip от ivandubskoj

686 | 31

1.36 ГБ




Вы не можете начинать темы
Вы не можете отвечать на сообщения
Вы не можете редактировать свои сообщения
Вы не можете удалять свои сообщения
Вы не можете добавлять вложения

Перейти:  
Для Мосгорсуда, Роскомнадзора и рекламодателей: mosgorsud-torrent[собачка]yandex.ru
 Вход
ppkBB3cker v.2 © 2008-2014 @ PPK
[ Time : 1.232s | 17 Queries | GZIP : Off ]

cron