img image001 image001 image001 image001 image001 image001 image001 image001 image001 image001 image001 image001 image001 image001 image001

Planets Sun Sun Sun
Статистика раздачи
Автор: Nickolas3434 | Размер: 4.36 ГБ | Добавлен: 18 ноя 2014
Раздают: 393    Качают: 32
Скачать торрент
Скачать торрент
Описание торрента

СообщениеДобавлено: 18 ноя 2014 

На игре / На игре 2. Новый уровень (2009 / 2010) BDRip-AVC


Страна: Россия
Жанр: боевик, приключения
Год выпуска: 2009
Продолжительность: 01:34:06
Перевод: Не требуется
Cубтитры: английские


Режиссер: Павел Санаев
В ролях: Сергей Чирков (Вампир), Марина Петренко (Рита), Алексей Бардуков (Максим), Агния Дитковските (Лена), Павел Прилучный (Доктор), Тихон Жизневский (Длинный), Евгений Харланов(Комар), Нодар Сирадзе (Ян), Виктор Вержбицкий (Борис Сергеевич), Александр Лыков (Комелев), Игорь Скляр (Зарицын), Сергей Газаров (Дарио Шимич), Борис Тенин (Лебедь), Михаил Трухин (Сколский), Михаил Горевой (Покровский), Алик Гульханов


Описание: После оглушительной победы на турнире по киберспорту команде геймеров вручают диски с только что разработанной игрой. Запустив игру, каждый из них подвергается воздействию, переводящему их игровые способности в реальные. Теперь и в жизни они лучшие бойцы, стрелки и гонщики.
Данное событие не остается незамеченным. Властные структуры путем шантажа, обмана и подкупа предлагают геймерам «работу». Но как только обман раскрывается, становится понятно, что они не герои, спасающие страну, а банальные наемные убийцы. Встает вопрос: как быть дальше? К тому же дисков у производителя еще много, и появление таких же, как они, профи — это вопрос времени.
Теперь перед геймерами стоит задача найти тираж и… либо уничтожить его, либо, создав и возглавив целую армию геймеров, диктовать свою волю… Команда разделилась. Каждый идет к своей цели.


Качество видео: BDRip-AVC
Формат видео: MKV
Видео: x.264, 1068x456 (2.34:1), 2868 Kbps, 24.000 fps
Аудио: AC3, 48000 Hz, 448 Kbps, 5.1 channels
Формат субтитров: softsub (SRT)
Format : Matroska
Format version : Version 4 / Version 2
File size : 2.18 GiB
Duration : 1h 34mn
Overall bit rate : 3 315 Kbps
Movie name : На игре (2009) BDRip-AVC [New-Team]
Encoded date : UTC 2014-11-15 10:49:36
Writing application : mkvmerge v7.3.0 ('Nouages') 32bit built on Oct 22 2014 18:44:01
Writing library : libebml v1.3.0 + libmatroska v1.4.1
Attachment : Yes
Video
ID : 1
Format : AVC
Format/Info : Advanced Video Codec
Format profile : High@L4.1
Format settings, CABAC : Yes
Format settings, ReFrames : 12 frames
Codec ID : V_MPEG4/ISO/AVC
Duration : 1h 34mn
Bit rate : 2 868 Kbps
Width : 1 068 pixels
Height : 456 pixels
Display aspect ratio : 2.35:1
Frame rate mode : Constant
Frame rate : 24.000 fps
Color space : YUV
Chroma subsampling : 4:2:0
Bit depth : 8 bits
Scan type : Progressive
Bits/(Pixel*Frame) : 0.245
Stream size : 1.84 GiB (84%)
Writing library : x264 core 142 r2479 dd79a61
Encoding settings : cabac=1 / ref=12 / deblock=1:-2:-1 / analyse=0x3:0x133 / me=umh / subme=10 / psy=1 / psy_rd=1.00:0.00 / mixed_ref=1 / me_range=32 / chroma_me=1 / trellis=2 / 8x8dct=1 / cqm=0 / deadzone=21,11 / fast_pskip=0 / chroma_qp_offset=-2 / threads=6 / lookahead_threads=1 / sliced_threads=0 / nr=0 / decimate=1 / interlaced=0 / bluray_compat=0 / constrained_intra=0 / bframes=9 / b_pyramid=2 / b_adapt=2 / b_bias=0 / direct=1 / weightb=1 / open_gop=0 / weightp=2 / keyint=240 / keyint_min=24 / scenecut=40 / intra_refresh=0 / rc_lookahead=60 / rc=2pass / mbtree=0 / bitrate=2868 / ratetol=1.0 / qcomp=0.60 / qpmin=0 / qpmax=69 / qpstep=4 / cplxblur=20.0 / qblur=0.5 / vbv_maxrate=15000 / vbv_bufsize=20000 / nal_hrd=none / filler=0 / ip_ratio=1.30 / pb_ratio=1.30 / aq=1:1.00
Language : Russian
Default : Yes
Forced : No
Audio
ID : 2
Format : AC-3
Format/Info : Audio Coding 3
Mode extension : CM (complete main)
Format settings, Endianness : Big
Codec ID : A_AC3
Duration : 1h 34mn
Bit rate mode : Constant
Bit rate : 448 Kbps
Channel(s) : 6 channels
Channel positions : Front: L C R, Side: L R, LFE
Sampling rate : 48.0 KHz
Bit depth : 16 bits
Compression mode : Lossy
Stream size : 302 MiB (14%)
Language : Russian
Default : Yes
Forced : No
Text
ID : 3
Format : UTF-8
Codec ID : S_TEXT/UTF8
Codec ID/Info : UTF-8 Plain Text
Language : English
Default : No
Forced : No
Menu
00:00:00.000 : ru:Chapter 01
00:08:47.708 : ru:Chapter 02
00:15:28.000 : ru:Chapter 03
00:23:00.250 : ru:Chapter 04
00:31:17.666 : ru:Chapter 05
00:37:55.666 : ru:Chapter 06
00:46:14.791 : ru:Chapter 07
00:53:33.791 : ru:Chapter 08
00:59:03.750 : ru:Chapter 09
01:07:21.375 : ru:Chapter 10
01:15:02.208 : ru:Chapter 11
01:21:32.458 : ru:Chapter 12
01:34:06.000 : ru:





Страна: Россия
Жанр: боевик, приключения
Год выпуска: 2010
Продолжительность: 01:26:30
Перевод: Не требуется
Cубтитры: английские


Режиссер: Павел Санаев
В ролях: Сергей Чирков (Вампир), Марина Петренко (Рита), Алексей Бардуков (Максим), Агния Дитковските (Лена), Павел Прилучный (Доктор), Тихон Жизневский (Длинный), Евгений Харланов(Комар), Нодар Сирадзе (Ян), Виктор Вержбицкий (Борис Сергеевич), Александр Лыков (Комелев), Игорь Скляр (Зарицын), Сергей Газаров (Дарио Шимич), Борис Тенин (Лебедь), Михаил Трухин (Сколский), Михаил Горевой (Покровский)


Описание: После проведения спецоперации, во время которой был убит один из членов команды, у геймеров начинается другая жизнь. Каждый из них понимает — они работают на крупный преступный синдикат.
За дисками теперь охотятся все — и властные структуры, и геймеры. Задача — не допустить, чтобы такой материал попал за границу. Часть команды решает забрать их себе и сформировать собственную подконтрольную армию. Вампир и Рита пытаются им помешать.
Теперь в команде — каждый сам за себя.


Качество видео: BDRip-AVC
Формат видео: MKV
Видео: x.264, 1124x480 (2.34:1), 3034 Kbps, 23.976 fps
Аудио: AC3, 48000 Hz, 448 Kbps, 5.1 channels
Формат субтитров: softsub (SRT)
Format : Matroska
Format version : Version 4 / Version 2
File size : 2.18 GiB
Duration : 1h 29mn
Overall bit rate : 3 480 Kbps
Movie name : На игре 2. Новый уровень (2010) BDRip-AVC [New-Team]
Encoded date : UTC 2014-11-15 11:06:19
Writing application : mkvmerge v7.3.0 ('Nouages') 32bit built on Oct 22 2014 18:44:01
Writing library : libebml v1.3.0 + libmatroska v1.4.1
Attachment : Yes
Video
ID : 1
Format : AVC
Format/Info : Advanced Video Codec
Format profile : High@L4.1
Format settings, CABAC : Yes
Format settings, ReFrames : 12 frames
Codec ID : V_MPEG4/ISO/AVC
Duration : 1h 29mn
Bit rate : 3 034 Kbps
Width : 1 124 pixels
Height : 480 pixels
Display aspect ratio : 2.35:1
Frame rate mode : Constant
Frame rate : 23.976 fps
Color space : YUV
Chroma subsampling : 4:2:0
Bit depth : 8 bits
Scan type : Progressive
Bits/(Pixel*Frame) : 0.235
Stream size : 1.85 GiB (85%)
Writing library : x264 core 142 r2479 dd79a61
Encoding settings : cabac=1 / ref=12 / deblock=1:-2:-2 / analyse=0x3:0x133 / me=umh / subme=10 / psy=1 / psy_rd=1.00:0.00 / mixed_ref=1 / me_range=32 / chroma_me=1 / trellis=2 / 8x8dct=1 / cqm=0 / deadzone=21,11 / fast_pskip=0 / chroma_qp_offset=-2 / threads=6 / lookahead_threads=1 / sliced_threads=0 / nr=0 / decimate=1 / interlaced=0 / bluray_compat=0 / constrained_intra=0 / bframes=8 / b_pyramid=2 / b_adapt=2 / b_bias=0 / direct=1 / weightb=1 / open_gop=0 / weightp=2 / keyint=240 / keyint_min=23 / scenecut=40 / intra_refresh=0 / rc_lookahead=60 / rc=2pass / mbtree=0 / bitrate=3034 / ratetol=1.0 / qcomp=0.60 / qpmin=0 / qpmax=69 / qpstep=4 / cplxblur=20.0 / qblur=0.5 / vbv_maxrate=15000 / vbv_bufsize=20000 / nal_hrd=none / filler=0 / ip_ratio=1.30 / pb_ratio=1.30 / aq=1:1.00
Language : Russian
Default : Yes
Forced : No
Audio
ID : 2
Format : AC-3
Format/Info : Audio Coding 3
Mode extension : CM (complete main)
Format settings, Endianness : Big
Codec ID : A_AC3
Duration : 1h 29mn
Bit rate mode : Constant
Bit rate : 448 Kbps
Channel(s) : 6 channels
Channel positions : Front: L C R, Side: L R, LFE
Sampling rate : 48.0 KHz
Bit depth : 16 bits
Compression mode : Lossy
Stream size : 287 MiB (13%)
Language : Russian
Default : Yes
Forced : No
Text
ID : 3
Format : UTF-8
Codec ID : S_TEXT/UTF8
Codec ID/Info : UTF-8 Plain Text
Language : English
Default : No
Forced : No
Menu
00:00:00.000 : ru:Chapter 01
00:08:05.318 : ru:Chapter 02
00:16:11.470 : ru:Chapter 03
00:23:17.312 : ru:Chapter 04
00:30:36.209 : ru:Chapter 05
00:39:05.176 : ru:Chapter 06
00:44:50.854 : ru:Chapter 07
00:53:06.641 : ru:Chapter 08
01:00:58.905 : ru:Chapter 09
01:05:12.408 : ru:Chapter 10
01:14:26.753 : ru:Chapter 11
01:24:08.835 : ru:Chapter 12
01:29:30.573 : ru:






   Похожие торренты   Торрент   Размер 
В этой теме нет новых непрочитанных сообщений. На игре / На игре 2. Новый уровень (2009/2010) BDRip 720p от Iriy

12 | 5

8.73 ГБ

В этой теме нет новых непрочитанных сообщений. На игре / На игре 2. Новый уровень (2009/2010) BDRip от HQCLUB

94 | 9

2.91 ГБ

В этой теме нет новых непрочитанных сообщений. На игре 2. Новый уровень (2010) BDRip 1080 от Element team

77 | 5

7.58 ГБ

В этой теме нет новых непрочитанных сообщений. На игре 2. Новый уровень (2010) BDRip от HQRips

980 | 39

1.46 ГБ

В этой теме нет новых непрочитанных сообщений. На игре 2. Новый уровень (2010) DVDRip

29 | 8

699.72 МБ

В этой теме нет новых непрочитанных сообщений. На игре 2. Новый уровень (2010) DVD9

4 | 4

5.7 ГБ

В этой теме нет новых непрочитанных сообщений. На игре 2. Новый уровень (2010) HDRip-AVC от ImperiaFilm | КПК

23 | 1

403.51 МБ




Вы не можете начинать темы
Вы не можете отвечать на сообщения
Вы не можете редактировать свои сообщения
Вы не можете удалять свои сообщения
Вы не можете добавлять вложения

Перейти:  
Для Мосгорсуда, Роскомнадзора и рекламодателей: mosgorsud-torrent[собачка]yandex.ru
 Вход
ppkBB3cker v.2 © 2008-2014 @ PPK
[ Time : 0.037s | 15 Queries | GZIP : Off ]

cron