img image001 image001 image001 image001 image001 image001 image001 image001 image001 image001 image001 image001 image001 image001 image001

Planets Sun Sun Sun
Статистика раздачи
Автор: Nickolas3434 | Размер: 746.29 МБ | Добавлен: 19 ноя 2014
Раздают: 336    Качают: 23
Скачать торрент
Скачать торрент
Описание торрента

СообщениеДобавлено: 19 ноя 2014 

Информация о фильме
Название: Райский уголок
Оригинальное название: Райский уголок
Год выхода: 2013
Жанр: Мелодрама, драма
Режиссёр: Владимир Дмитриевский
В ролях: Наталия Антонова, Андрей Биланов, Кира Бузникова, Елизавета Зарубина, Полина Артюхина, Егор Лучишкин, Наталья Юнникова, Ольга Крупина, Константин Третьяков, А. Богдасаров
О фильме: В жизни тридцатипятилетней Жени есть все: муж, дети, дом в элитном поселке «Райский уголок». Но оказывается, что всё это только видимость. У Сергея есть своя интенсивная личная жизнь, в которой для Жени остаётся всё меньше места...

Выпущено: Россия, Киностудия "Маркес", Кинокомпания "Иллюзион"
Продолжительность: 01:29:56
Перевод: Не требуется
Файл
Качество: HDTVRip [Исходник: HDTV (1080i)]
Видео: XviD, 1022 Кбит/с, 656x368 (16:9), 25 кадр/с
Аудио: Русский, MP3, 48000 Гц, 128 Кбит/с, 2 канала (Стерео)
Субтитры: Нет

General
Complete name : Rayskiy.ugolok.2013.HDTVRip.745MB.avi
Format : AVI
Format/Info : Audio Video Interleave
File size : 746 MiB
Duration : 1h 29mn
Overall bit rate : 1 160 Kbps
Movie name : Райский уголок (2013) HDTVRip
Genre : Мелодрама, драма
Recorded date : 17.11.2014
Writing application : VirtualDubMod 1.5.10.3 (build 2550/release)
Writing library : VirtualDubMod build 2550/release
Copyright : rip by ivandubskoj
Video
ID : 0
Format : MPEG-4 Visual
Format profile : Advanced Simple@L5
Format settings, BVOP : 2
Format settings, QPel : No
Format settings, GMC : No warppoints
Format settings, Matrix : Custom
Codec ID : XVID
Codec ID/Hint : XviD
Duration : 1h 29mn
Bit rate : 1 022 Kbps
Width : 656 pixels
Height : 368 pixels
Display aspect ratio : 16:9
Frame rate : 25.000 fps
Color space : YUV
Chroma subsampling : 4:2:0
Bit depth : 8 bits
Scan type : Progressive
Compression mode : Lossy
Bits/(Pixel*Frame) : 0.169
Stream size : 658 MiB (88%)
Writing library : XviD 73
Audio
ID : 1
Format : MPEG Audio
Format version : Version 1
Format profile : Layer 3
Codec ID : 55
Codec ID/Hint : MP3
Duration : 1h 29mn
Bit rate mode : Constant
Bit rate : 128 Kbps
Channel(s) : 2 channels
Sampling rate : 48.0 KHz
Compression mode : Lossy
Stream size : 82.3 MiB (11%)
Alignment : Aligned on interleaves
Interleave, duration : 40 ms (1.00 video frame)
Interleave, preload duration : 504 ms
Title : Russian
Writing library : LAME3.99r
Encoding settings : -m s -V 4 -q 0 -lowpass 17 -b 128




Автор рипа - ivandubskoj



   Похожие торренты   Торрент   Размер 
В этой теме нет новых непрочитанных сообщений. Райский уголок (2013) HDTVRip от ivandubskoj

630 | 71

1.47 ГБ

В этой теме нет новых непрочитанных сообщений. Райский уголок (2013) HDTVRip от Files-x

225 | 12

1.37 ГБ

В этой теме нет новых непрочитанных сообщений. Райский уголок (2009) DVDRip

27 | 3

1.37 ГБ

В этой теме нет новых непрочитанных сообщений. Кровосмешение (Райский уголок) (2009) DVDRip

2 | 3

1.37 ГБ

В этой теме нет новых непрочитанных сообщений. Везучая (2013) HDTVRip от ivandubskoj

242 | 12

720.97 МБ

В этой теме нет новых непрочитанных сообщений. Ты будешь моей (2013) HDTVRip от ivandubskoj

284 | 16

1.46 ГБ

В этой теме нет новых непрочитанных сообщений. Здрасьте, я ваш папа! (2013) HDTVRip от ivandubskoj

1126 | 54

1.36 ГБ




Вы не можете начинать темы
Вы не можете отвечать на сообщения
Вы не можете редактировать свои сообщения
Вы не можете удалять свои сообщения
Вы не можете добавлять вложения

Перейти:  
Для Мосгорсуда, Роскомнадзора и рекламодателей: mosgorsud-torrent[собачка]yandex.ru
 Вход
ppkBB3cker v.2 © 2008-2014 @ PPK
[ Time : 0.031s | 15 Queries | GZIP : Off ]

Торрент трекер RUTOR.IN, Не можете зайти на rutor.org? Какой новый адрес рутор? Какое зеркало рутор? Не работает rutor.org и зеркала? Тогда наш торрент специально для вас. Rutor.in неофициальное зеркало rutor. В случае если у Вас заблокирован rutor или вдруг Вы не можете на него зайти, то Вы без труда сможете скачать бесплатно и без рекламы последние новинки кино, игр, сериалов и прочего у нас, на Rutor.in. Не нужно использовать прокси, чтобы зайти на рутор, достаточно воспользоваться нашим ресурсом. Все новые фильмы, игры, сериалы, книги и музыка за 2013 и 2014 годы через торрент бесплатно. Скачивайте фильмы в хорошем качестве, игры для пк, xbox, playstation без регистрации. У нас вы найдете новые Зарубежные сериалы и Русские сериалы 2013, 2014, 2015 годов. Оставайтесь с нами, качайте любимые фильмы, игры, сериалы, книги и музыку.