img image001 image001 image001 image001 image001 image001 image001 image001 image001 image001 image001 image001 image001 image001 image001

Planets Sun Sun Sun
Статистика раздачи
Автор: Nickolas3434 | Размер: 1.45 ГБ | Добавлен: 19 ноя 2014
Раздают: 25    Качают: 9
Скачать торрент
Скачать торрент
Описание торрента

СообщениеДобавлено: 19 ноя 2014 

Страна: СССР
Производство: Межрабпомфильм
Жанр: драма, комедия
Год выпуска: 1933
Продолжительность: 01:28:03
Перевод: не требуется
Оригинальная аудиодорожка: русский
Cубтитры: нет
Режиссер: Яков Протазанов
В ролях:
Леонид Леонидов, Петр Галаджев, Михаил Климов, Анатолий Кторов, Сергей Мартинсон, Николай Радин, Сергей Тихонравов, Валентина Токарская, Константин Зубов, Василий Топорков, Иван Бобров, Сергей Комаров, Михаил Розен-Санин, Иван Зайцев, Михаил Холодов, Александр Жуков, Георгий Милляр...
Описание:
Герои фильма носят имена семи нот — До, Ре, Ми и т. д. Дело происходит в некоем европейском королевстве Буфферия, где заправляют фашисты и капиталисты. Умирает король, не оставив наследника, и наиболее подходящей кандидатурой на престол кажется принц До, погрязший в долгах. Но по дороге в столицу До выпадает из аэроплана в реку, а когда, чудом оставшись в живых, он добирается — оказывается, что принятый за него парикмахер Соль сам объявлен королём. Поначалу Соль теряется, но его ответы невпопад быстро истолковываются «как надо», в духе политической ситуации. Так, на вопрос о мерах по урегулированию государственного кризиса Соль вспоминает «горячие припарки, свинцовые примочки», что приводит в восторг лидера фашистов Фа. Постепенно Соль входит в роль и делает всё более резкие заявления.





Исходник: DVD5 R5
Тип релиза: DVDRip
Контейнер: AVI
Видео: 688x512 (4:3), 25 fps, XviD ~ 2226 kbps avg, 0.253 bit/pixel
Аудио: 48 kHz, Dolby Digital AC3 1.0, 128 kbps
Раздача от:
Общее
Полное имя : Marionetki.1933.DVDRip_[New-team]_by_AVP_Studio.avi
Формат : AVI
Формат/Информация : Audio Video Interleave
Размер файла : 1,45 Гбайт
Продолжительность : 1 ч. 28 м.
Общий поток : 2364 Кбит/сек
Программа кодирования : VirtualDubModRus 1.5.10.2 (build 2542/release)
Библиотека кодирования : VirtualDubMod build 2542/release
Видео
Идентификатор : 0
Формат : MPEG-4 Visual
Профиль формата : Advanced Simple@L5
Параметр BVOP формата : 1
Параметр QPel формата : Нет
Параметр GMC формата : Без точки перехода
Параметр матрицы формата : Выборочная
Идентификатор кодека : XVID
Идентификатор кодека/Подсказка : XviD
Продолжительность : 1 ч. 28 м.
Битрейт : 2226 Кбит/сек
Ширина : 688 пикселей
Высота : 512 пикселей
Соотношение сторон : 4:3
Частота кадров : 25,000 кадров/сек
Цветовое пространство : YUV
Субдискретизация насыщенности : 4:2:0
Битовая глубина : 8 бит
Тип развёртки : Прогрессивная
Метод сжатия : С потерями
Бит/(Пиксели*Кадры) : 0.253
Размер потока : 1,37 Гбайт (94%)
Библиотека кодирования : XviD 73
Аудио
Идентификатор : 1
Формат : AC-3
Формат/Информация : Audio Coding 3
Расширение режима : CM (complete main)
Параметр Endianness формата : Big
Идентификатор кодека : 2000
Продолжительность : 1 ч. 28 м.
Вид битрейта : Постоянный
Битрейт : 128 Кбит/сек
Каналы : 1 канал
Расположение каналов : Front: C
Частота : 48,0 КГц
Битовая глубина : 16 бит
Метод сжатия : С потерями
Размер потока : 80,6 Мбайт (5%)
Выравнивание : Разделение по промежуткам
Продолжительность промежутка : 40 мс. (1,00 видеокадр)
Время предзагрузки промежутка : 500 мс





   Похожие торренты   Торрент   Размер 
В этой теме нет новых непрочитанных сообщений. Марионетки (1933) DVDRip-AVC от New-Team

31 | 9

1.46 ГБ

В этой теме нет новых непрочитанных сообщений. Марионетки (1933) DVDRip от New-Team

5 | 3

743.04 МБ

В этой теме нет новых непрочитанных сообщений. Окраина (1933) DVDRip-AVC от New-Team

26 | 10

1.09 ГБ

В этой теме нет новых непрочитанных сообщений. Окраина (1933) DVDRip от New-Team

3 | 5

743.67 МБ

В этой теме нет новых непрочитанных сообщений. Окраина (1933) DVDRip от New-Team

36 | 8

1.14 ГБ

В этой теме нет новых непрочитанных сообщений. Иудушка Головлев (1933) DVDRip-AVC от New-Team

16 | 4

1.46 ГБ

В этой теме нет новых непрочитанных сообщений. Иудушка Головлев (1933) DVDRip от New-Team

65 | 11

754.79 МБ




Вы не можете начинать темы
Вы не можете отвечать на сообщения
Вы не можете редактировать свои сообщения
Вы не можете удалять свои сообщения
Вы не можете добавлять вложения

Перейти:  
Для Мосгорсуда, Роскомнадзора и рекламодателей: mosgorsud-torrent[собачка]yandex.ru
 Вход
ppkBB3cker v.2 © 2008-2014 @ PPK
[ Time : 0.048s | 15 Queries | GZIP : On ]

Торрент трекер RUTOR.IN, Не можете зайти на rutor.org? Какой новый адрес рутор? Какое зеркало рутор? Не работает rutor.org и зеркала? Тогда наш торрент специально для вас. Rutor.in неофициальное зеркало rutor. В случае если у Вас заблокирован rutor или вдруг Вы не можете на него зайти, то Вы без труда сможете скачать бесплатно и без рекламы последние новинки кино, игр, сериалов и прочего у нас, на Rutor.in. Не нужно использовать прокси, чтобы зайти на рутор, достаточно воспользоваться нашим ресурсом. Все новые фильмы, игры, сериалы, книги и музыка за 2013 и 2014 годы через торрент бесплатно. Скачивайте фильмы в хорошем качестве, игры для пк, xbox, playstation без регистрации. У нас вы найдете новые Зарубежные сериалы и Русские сериалы 2013, 2014, 2015 годов. Оставайтесь с нами, качайте любимые фильмы, игры, сериалы, книги и музыку.