img image001 image001 image001 image001 image001 image001 image001 image001 image001 image001 image001 image001 image001 image001 image001

Planets Sun Sun Sun
Статистика раздачи
Автор: Nickolas3434 | Размер: 743.74 МБ | Добавлен: 19 ноя 2014
Раздают: 9    Качают: 7
Скачать торрент
Скачать торрент
Описание торрента

СообщениеДобавлено: 19 ноя 2014 

Страна: СССР
Производство: Межрабпомфильм
Жанр: драма
Год выпуска: 1935
Продолжительность: 01:21:42
Перевод: не требуется
Оригинальная аудиодорожка: русский
Cубтитры: нет
Режиссер: Моисей Голдблат, Евгений Шнейдер
В ролях:
Александр Гранах, Николай Мордвинов, М.Синельникова, Ляля Черная, Михаил Яншин, Петр Савин, Федор Блажевич, Евгения Рогулина...
Описание:
Старый вожак Данило крепко держит в руках цыганский табор. Но у него есть серьезный соперник — Иван Лихо, который ведет терпеливую борьбу за привлечение цыган к оседлой жизни. Он приглашает Данило с табором погостить в колхозе. Председатель обращается к цыганам за помощью в уборочную пору и просит лошадей. Данило приводит самую захудалую лошаденку из своего богатого табуна, чем вызывает недовольство заинтересованных в помощи колхозу цыган. В таборе назревает раскол…





Исходник: DVD5 R5
Тип релиза: DVDRip
Контейнер: AVI
Видео: 656x496 (4:3), 25 fps, XviD ~ 1135 kbps avg, 0.140 bit/pixel
Аудио: 48 kHz, MP3 2.0, 128 kbps
Раздача от:
Общее
Полное имя : Posledniy.tabor.1935.DVDRip-745_[New-team]_by_AVP_Studio.avi
Формат : AVI
Формат/Информация : Audio Video Interleave
Размер файла : 744 Мбайт
Продолжительность : 1 ч. 21 м.
Общий поток : 1273 Кбит/сек
Программа кодирования : VirtualDubModRus 1.5.10.2 (build 2542/release)
Библиотека кодирования : VirtualDubMod build 2542/release
Видео
Идентификатор : 0
Формат : MPEG-4 Visual
Профиль формата : Advanced Simple@L5
Параметр BVOP формата : 1
Параметр QPel формата : Нет
Параметр GMC формата : Без точки перехода
Параметр матрицы формата : Выборочная
Идентификатор кодека : XVID
Идентификатор кодека/Подсказка : XviD
Продолжительность : 1 ч. 21 м.
Битрейт : 1135 Кбит/сек
Ширина : 656 пикселей
Высота : 496 пикселей
Соотношение сторон : 4:3
Частота кадров : 25,000 кадров/сек
Цветовое пространство : YUV
Субдискретизация насыщенности : 4:2:0
Битовая глубина : 8 бит
Тип развёртки : Прогрессивная
Метод сжатия : С потерями
Бит/(Пиксели*Кадры) : 0.140
Размер потока : 663 Мбайт (89%)
Библиотека кодирования : XviD 73
Аудио
Идентификатор : 1
Формат : MPEG Audio
Версия формата : Version 1
Профиль формата : Layer 3
Идентификатор кодека : 55
Идентификатор кодека/Подсказка : MP3
Продолжительность : 1 ч. 21 м.
Вид битрейта : Постоянный
Битрейт : 128 Кбит/сек
Каналы : 2 канала
Частота : 48,0 КГц
Метод сжатия : С потерями
Размер потока : 74,8 Мбайт (10%)
Выравнивание : Соединение по промежуткам
Продолжительность промежутка : 40 мс. (1,00 видеокадр)
Время предзагрузки промежутка : 504 мс.
Библиотека кодирования : LAME3.99r
Настройки программы : -m s -V 4 -q 2 -lowpass 17 -b 128





   Похожие торренты   Торрент   Размер 
В этой теме нет новых непрочитанных сообщений. Последний табор (1935) DVDRip от New-Team

15 | 7

1.09 ГБ

В этой теме нет новых непрочитанных сообщений. Последний табор (1935) DVDRip-AVC от New-Team

12 | 5

1.09 ГБ

В этой теме нет новых непрочитанных сообщений. Скандалы Джорджа Уайта 1935 года / George White's 1935 Scandals (1935) DVDRip от egoleshik | P1

1 | 2

1.1 ГБ

В этой теме нет новых непрочитанных сообщений. Три товарища (1935) DVDRip от New-Team

11 | 4

744.93 МБ

В этой теме нет новых непрочитанных сообщений. Три товарища (1935) DVDRip от New-Team

50 | 13

1.09 ГБ

В этой теме нет новых непрочитанных сообщений. Три товарища (1935) DVDRip-AVC от New-Team

23 | 10

1.09 ГБ

В этой теме нет новых непрочитанных сообщений. Табор уходит в небо (1975) DVDRip

362 | 28

1.46 ГБ




Вы не можете начинать темы
Вы не можете отвечать на сообщения
Вы не можете редактировать свои сообщения
Вы не можете удалять свои сообщения
Вы не можете добавлять вложения

Перейти:  
Для Мосгорсуда, Роскомнадзора и рекламодателей: mosgorsud-torrent[собачка]yandex.ru
 Вход
ppkBB3cker v.2 © 2008-2014 @ PPK
[ Time : 0.521s | 16 Queries | GZIP : Off ]

Торрент трекер RUTOR.IN, Не можете зайти на rutor.org? Какой новый адрес рутор? Какое зеркало рутор? Не работает rutor.org и зеркала? Тогда наш торрент специально для вас. Rutor.in неофициальное зеркало rutor. В случае если у Вас заблокирован rutor или вдруг Вы не можете на него зайти, то Вы без труда сможете скачать бесплатно и без рекламы последние новинки кино, игр, сериалов и прочего у нас, на Rutor.in. Не нужно использовать прокси, чтобы зайти на рутор, достаточно воспользоваться нашим ресурсом. Все новые фильмы, игры, сериалы, книги и музыка за 2013 и 2014 годы через торрент бесплатно. Скачивайте фильмы в хорошем качестве, игры для пк, xbox, playstation без регистрации. У нас вы найдете новые Зарубежные сериалы и Русские сериалы 2013, 2014, 2015 годов. Оставайтесь с нами, качайте любимые фильмы, игры, сериалы, книги и музыку.
cron