img image001 image001 image001 image001 image001 image001 image001 image001 image001 image001 image001 image001 image001 image001 image001

Planets Sun Sun Sun
Статистика раздачи
Автор: Nickolas3434 | Размер: 2.19 ГБ | Добавлен: 20 ноя 2014
Раздают: 143    Качают: 42
Скачать торрент
Скачать торрент
Описание торрента

СообщениеДобавлено: 20 ноя 2014 


Страна: Россия, Беларусь / Югра-фильм
Жанр: драма, военный
Год выпуска: 2006
Продолжительность: 01:58:26
Перевод: Не требуется
Cубтитры: нет
Оригинальная аудиодорожка: русский
Режиссер: Михаил Сегал
В ролях: Адриан Тополь, Светлана Иванова, Уве Йеллинек, Тамара Миронова, Валентин Мацапура, Андрей Мерзликин, Джульетта Геринг, Игорь Сигов, Виктор Рыбчинский, Алексей Колокольцев...
Описание: По повести "Немой" Алеся Адамовича. 1943 год. В ответ на действия партизан и в рамках "плана по уничтожению славянских народов" по всей Белоруссии сжигаются сотни деревень вместе с жителями. Направленное в одну из таких деревень подразделение СС в последний момент неожиданно получает приказ "приостановить" акцию. Вместо того, чтобы уничтожить жителей, эсесовцы становятся их постояльцами. Успеет ли самый юный из эсесовцев Франц объясниться с Полиной, дочерью своей хозяйки, до того, как поступит новый приказ? Сколько осталось времени?

Качество: DVDRip-AVC / DVD9 R5 от ООО «РУССКОЕ СЧАСТЬЕ ЭНТЕРТЕЙНМЕНТ»
Формат: MKV
Видео: 704x552@x1018x552 (1.84:1), 25.000 fps, MPEG-4 AVC, ~2192 kbps avg, 0.226 bit/pix
Аудио: 48 kHz, Dolby AC3, 6 ch, 448 kbps, русский
Раздача от:
General
Format : Matroska
Format version : Version 2
File size : 2.19 GiB
Duration : 1h 58mn
Overall bit rate : 2 641 Kbps
Encoded date : UTC 2014-11-19 03:41:36
Writing application : mkvmerge v6.1.0 ('Old Devil') built on Mar 4 2013 09:10:42
Writing library : libebml v1.3.0 + libmatroska v1.4.0
Video
ID : 1
Format : AVC
Format/Info : Advanced Video Codec
Format profile : High@L4.1
Format settings, CABAC : Yes
Format settings, ReFrames : 8 frames
Codec ID : V_MPEG4/ISO/AVC
Duration : 1h 58mn
Bit rate : 2 192 Kbps
Width : 704 pixels
Height : 552 pixels
Display aspect ratio : 1.85:1
Original display aspect ratio : 1.85:1
Frame rate mode : Constant
Frame rate : 25.000 fps
Color space : YUV
Chroma subsampling : 4:2:0
Bit depth : 8 bits
Scan type : Progressive
Bits/(Pixel*Frame) : 0.226
Stream size : 1.77 GiB (81%)
Writing library : x264 core 130 r2273 b3065e6
Encoding settings : cabac=1 / ref=8 / deblock=1:-2:-1 / analyse=0x3:0x113 / me=umh / subme=10 / psy=1 / psy_rd=1.00:0.05 / mixed_ref=1 / me_range=32 / chroma_me=1 / trellis=2 / 8x8dct=1 / cqm=0 / deadzone=21,11 / fast_pskip=0 / chroma_qp_offset=-3 / threads=9 / lookahead_threads=1 / sliced_threads=0 / nr=0 / decimate=0 / interlaced=0 / bluray_compat=0 / constrained_intra=0 / bframes=8 / b_pyramid=2 / b_adapt=2 / b_bias=0 / direct=3 / weightb=1 / open_gop=0 / weightp=2 / keyint=250 / keyint_min=25 / scenecut=40 / intra_refresh=0 / rc=2pass / mbtree=0 / bitrate=2192 / ratetol=1.0 / qcomp=0.60 / qpmin=0 / qpmax=69 / qpstep=4 / cplxblur=20.0 / qblur=0.5 / ip_ratio=1.40 / pb_ratio=1.30 / aq=1:1.00
Default : Yes
Forced : No
Audio
ID : 2
Format : AC-3
Format/Info : Audio Coding 3
Mode extension : CM (complete main)
Format settings, Endianness : Big
Codec ID : A_AC3
Duration : 1h 58mn
Bit rate mode : Constant
Bit rate : 448 Kbps
Channel(s) : 6 channels
Channel positions : Front: L C R, Side: L R, LFE
Sampling rate : 48.0 KHz
Bit depth : 16 bits
Compression mode : Lossy
Stream size : 380 MiB (17%)
Default : Yes
Forced : No





   Похожие торренты   Торрент   Размер 
В этой теме нет новых непрочитанных сообщений. Франц + Полина (2006) DVDRip от New-Team

45 | 17

2.19 ГБ

В этой теме нет новых непрочитанных сообщений. Франц + Полина (2006) DVDRip от KinoBit

9 | 4

1.47 ГБ

В этой теме нет новых непрочитанных сообщений. Franz + Полина (2006) DVDRip

0 | 3

2.34 ГБ

В этой теме нет новых непрочитанных сообщений. Франц Кафка - Из дневников (2013) MP3

17 | 4

542.91 МБ

В этой теме нет новых непрочитанных сообщений. Франц Легар - Весёлая вдова (1972) MP3

2 | 3

142.59 МБ

В этой теме нет новых непрочитанных сообщений. Франц Легар - Граф Люксембург (1954) (2005) MP3

0 | 3

220.75 МБ

В этой теме нет новых непрочитанных сообщений. Величайшие футболисты. Франц Беккенбауэр / The greatest footballers (2015) HDTV 1080i

59 | 4

1.39 ГБ




Вы не можете начинать темы
Вы не можете отвечать на сообщения
Вы не можете редактировать свои сообщения
Вы не можете удалять свои сообщения
Вы не можете добавлять вложения

Перейти:  
Для Мосгорсуда, Роскомнадзора и рекламодателей: mosgorsud-torrent[собачка]yandex.ru
 Вход
ppkBB3cker v.2 © 2008-2014 @ PPK
[ Time : 0.530s | 17 Queries | GZIP : Off ]

Торрент трекер RUTOR.IN, Не можете зайти на rutor.org? Какой новый адрес рутор? Какое зеркало рутор? Не работает rutor.org и зеркала? Тогда наш торрент специально для вас. Rutor.in неофициальное зеркало rutor. В случае если у Вас заблокирован rutor или вдруг Вы не можете на него зайти, то Вы без труда сможете скачать бесплатно и без рекламы последние новинки кино, игр, сериалов и прочего у нас, на Rutor.in. Не нужно использовать прокси, чтобы зайти на рутор, достаточно воспользоваться нашим ресурсом. Все новые фильмы, игры, сериалы, книги и музыка за 2013 и 2014 годы через торрент бесплатно. Скачивайте фильмы в хорошем качестве, игры для пк, xbox, playstation без регистрации. У нас вы найдете новые Зарубежные сериалы и Русские сериалы 2013, 2014, 2015 годов. Оставайтесь с нами, качайте любимые фильмы, игры, сериалы, книги и музыку.