img image001 image001 image001 image001 image001 image001 image001 image001 image001 image001 image001 image001 image001 image001 image001

Planets Sun Sun Sun
Статистика раздачи
Автор: Nickolas3434 | Размер: 1.45 ГБ | Добавлен: 20 ноя 2014, 19:35
Раздают: 946    Качают: 45
Скачать торрент
Скачать торрент
Описание торрента

СообщениеДобавлено: 20 ноя 2014, 19:35 

Информация о фильме
Название: Красный жемчуг любви
Год выхода: 2007
Жанр: мелодрама
Режиссер: Андрес Пуустусмаа
В ролях: Оксана Фандера, Игорь Яцко, Евгений Цыганов, Наталья Суркова, Юрий Степанов, Ирина Рахманова, Алексей Вертинский, Георгий Дрозд, Руслана Рухадзе, Вячеслав Бурлачко
О фильме:
Мария молода и красива. Ее жизнь похожа на сказку, в которой желания сбываются по мановению волшебной палочки. У нее умный, любящий муж. И все, что можно купить за деньги. Мария очень хочет ребенка, но не может его родить. Она живет, но не чувствует жизни. Она очень несчастна.
В порыве отчаяния Мария идет к шаману, чтобы хоть что-то сделать со своей тоской, и он гадает ей на камнях. «Ты выбрала Красный Жемчуг Любви. Кто обладает им — любит», говорит Шаман, оценив выбор Марии. На следующий день Мария встречает Григория — гонщика, каскадера и ловеласа. И влюбляется в него с первого взгляда.
… Они рассекали по городу и окрестностям на его мотоцикле, они потеряли голову, они занимались любовью повсюду. Напоенный нежностью город обнимал их и защищал от посторонних взглядов. Красный Жемчуг Любви — самый настоящий талисман, даже если его подарил несуществующий шаман.

Страна: Россия, Украина
Студия: Аврора Продакшн, Фильмоком
Продолжительность: 01:21:21
Перевод: Не требуется
Файл
Кодек: XviD / AC3
Качество: DVDRip
Видео: MPEG4, XviD, 720x304 (2.35:1), 25.000 fps, 2 102 Kbps (0.384 bit/pixel)
Звук: AC-3, 48.0 KHz, 6 ch, 448 Kbps, CBR
General
Complete name : Krasnii.gemchyg.lyubvi.2008..avi
Format : AVI
Format/Info : Audio Video Interleave
File size : 1.45 GiB
Duration : 1h 21mn
Overall bit rate : 2 559 Kbps
Director : zim2001
Writing application : VirtualDubMod 1.5.10.2 (build 2540/release)
Video
ID : 0
Format : MPEG-4 Visual
Format profile : Advanced Simple@L5
Format settings, BVOP : 2
Format settings, QPel : No
Format settings, GMC : No warppoints
Format settings, Matrix : Custom
Codec ID : XVID
Codec ID/Hint : XviD
Duration : 1h 21mn
Bit rate : 2 102 Kbps
Width : 720 pixels
Height : 304 pixels
Display aspect ratio : 2.35:1
Frame rate : 25.000 fps
Color space : YUV
Chroma subsampling : 4:2:0
Bit depth : 8 bits
Scan type : Progressive
Compression mode : Lossy
Bits/(Pixel*Frame) : 0.384
Stream size : 1.19 GiB (82%)
Writing library : XviD 56
Audio
ID : 1
Format : AC-3
Format/Info : Audio Coding 3
Mode extension : CM (complete main)
Format settings, Endianness : Big
Codec ID : 2000
Duration : 1h 21mn
Bit rate mode : Constant
Bit rate : 448 Kbps
Channel(s) : 6 channels
Channel positions : Front: L C R, Side: L R, LFE
Sampling rate : 48.0 KHz
Bit depth : 16 bits
Compression mode : Lossy
Stream size : 260 MiB (17%)
Alignment : Split accross interleaves
Interleave, duration : 40 ms (1.00 video frame)
Interleave, preload duration : 500 ms



   Похожие торренты   Торрент   Размер 
В этой теме нет новых непрочитанных сообщений. Красный жемчуг любви (2008) DVDRip

306 | 6

1.36 ГБ

В этой теме нет новых непрочитанных сообщений. Красный отель / L'Auberge rouge (2007) DVDRip от FS-Media

42 | 7

1.46 ГБ

В этой теме нет новых непрочитанных сообщений. Драконий Жемчуг / Dragon Ball [s01] (1986-1989) DVDRip

2 | 33

48.64 ГБ

В этой теме нет новых непрочитанных сообщений. Иго любви [01-08 из 08] (2007) DVDRip от КинозалSAT

19 | 10

4.69 ГБ

В этой теме нет новых непрочитанных сообщений. Красный отель / L' Auberge rouge (2007) BDRip от HQ-ViDEO

10 | 3

1.71 ГБ

В этой теме нет новых непрочитанных сообщений. Красный отель / L' Auberge rouge (2007) BDRip 720p | D

125 | 6

4.35 ГБ

В этой теме нет новых непрочитанных сообщений. Александр Бушков - Красный монарх / Сталин. Корабль без капитана (2007) МР3

50 | 5

538.82 МБ




Вы не можете начинать темы
Вы не можете отвечать на сообщения
Вы не можете редактировать свои сообщения
Вы не можете удалять свои сообщения
Вы не можете добавлять вложения

Перейти:  
Для Мосгорсуда, Роскомнадзора и рекламодателей: mosgorsud-torrent[собачка]yandex.ru
Настройки
ppkBB3cker v.2 © 2008-2014 @ PPK
[ Time : 0.015s | 15 Queries | GZIP : Off ]
CGP [Extreme] output time : 0.00023s | 0 Queries | GZIP : Off

Торрент трекер RUTOR.IN, Не можете зайти на rutor.org? Какой новый адрес рутор? Какое зеркало рутор? Не работает rutor.org и зеркала? Тогда наш торрент специально для вас. Rutor.in неофициальное зеркало rutor. В случае если у Вас заблокирован rutor или вдруг Вы не можете на него зайти, то Вы без труда сможете скачать бесплатно и без рекламы последние новинки кино, игр, сериалов и прочего у нас, на Rutor.in. Не нужно использовать прокси, чтобы зайти на рутор, достаточно воспользоваться нашим ресурсом. Все новые фильмы, игры, сериалы, книги и музыка за 2013 и 2014 годы через торрент бесплатно. Скачивайте фильмы в хорошем качестве, игры для пк, xbox, playstation без регистрации. У нас вы найдете новые Зарубежные сериалы и Русские сериалы 2013, 2014, 2015 годов. Оставайтесь с нами, качайте любимые фильмы, игры, сериалы, книги и музыку.