img image001 image001 image001 image001 image001 image001 image001 image001 image001 image001 image001 image001 image001 image001 image001

Planets Sun Sun Sun
Статистика раздачи
Автор: Nickolas3434 | Размер: 1.09 ГБ | Добавлен: 26 ноя 2014
Раздают: 15    Качают: 5
Скачать торрент
Скачать торрент
Описание торрента

СообщениеДобавлено: 26 ноя 2014 

Страна: СССР
Производство: Ленфильм

Жанр: мюзикл, комедия
Год выпуска: 1940
Продолжительность: 01:19:53

Перевод: не требуется
Оригинальная аудиодорожка: русский
Cубтитры: нет

Режиссер: Александр Ивановский, Герберт Раппапорт

В ролях:
Сергей Лемешев, Зоя Фёдорова, Николай Коновалов, Эраст Гарин, Анатолий Королькевич, Анна Сергеева, Сергей Филиппов, Лидия Атманаки...

Описание:
Таксист Петя Говорков репетирует роль Ленского в любительском оперном театре. Старый певец и дирижер Македонский предсказывает ему блестящее будущее. Но премьера спектакля заканчивается провалом из-за того, что накануне Петя поссорился с любимой девушкой...





Исходник: DVD5 R5
Тип релиза: DVDRip
Контейнер: AVI

Видео: 672x512 (4:3), 25 fps, XviD ~ 1753 kbps avg, 0.204 bit/pixel
Аудио: 48 kHz, Dolby Digital AC3 2.0, 192 kbps

Раздача от:
Общее
Полное имя : Muzykalnaya.istoriya.1938.DVDRip_[New-team]_by_AVP_Studio.avi
Формат : AVI
Формат/Информация : Audio Video Interleave
Размер файла : 1,09 Гбайт
Продолжительность : 1 ч. 19 м.
Общий поток : 1955 Кбит/сек
Программа кодирования : VirtualDubModRus 1.5.10.2 (build 2542/release)
Библиотека кодирования : VirtualDubMod build 2542/release

Видео
Идентификатор : 0
Формат : MPEG-4 Visual
Профиль формата : Advanced Simple@L5
Параметр BVOP формата : 1
Параметр QPel формата : Нет
Параметр GMC формата : Без точки перехода
Параметр матрицы формата : Выборочная
Идентификатор кодека : XVID
Идентификатор кодека/Подсказка : XviD
Продолжительность : 1 ч. 19 м.
Битрейт : 1753 Кбит/сек
Ширина : 672 пикселя
Высота : 512 пикселей
Соотношение сторон : 4:3
Частота кадров : 25,000 кадров/сек
Цветовое пространство : YUV
Субдискретизация насыщенности : 4:2:0
Битовая глубина : 8 бит
Тип развёртки : Прогрессивная
Метод сжатия : С потерями
Бит/(Пиксели*Кадры) : 0.204
Размер потока : 1002 Мбайт (90%)
Библиотека кодирования : XviD 73

Аудио
Идентификатор : 1
Формат : AC-3
Формат/Информация : Audio Coding 3
Расширение режима : CM (complete main)
Параметр Endianness формата : Big
Идентификатор кодека : 2000
Продолжительность : 1 ч. 19 м.
Вид битрейта : Постоянный
Битрейт : 192 Кбит/сек
Каналы : 2 канала
Расположение каналов : Front: L R
Частота : 48,0 КГц
Битовая глубина : 16 бит
Метод сжатия : С потерями
Размер потока : 110 Мбайт (10%)
Выравнивание : Разделение по промежуткам
Продолжительность промежутка : 40 мс. (1,00 видеокадр)
Время предзагрузки промежутка : 500 мс





   Похожие торренты   Торрент   Размер 
В этой теме нет новых непрочитанных сообщений. Музыкальная история (1940) DVDRip-AVC от New-Team

11 | 3

1.09 ГБ

В этой теме нет новых непрочитанных сообщений. Музыкальная история (1940) DVDRip от New-Team

8 | 11

742.68 МБ

В этой теме нет новых непрочитанных сообщений. Музыкальная история (1940) DVDRip от Files-x

23 | 13

1.36 ГБ

В этой теме нет новых непрочитанных сообщений. Филадельфийская история / The Philadelphia Story (1940) DVDRip | P

100 | 40

1.46 ГБ

В этой теме нет новых непрочитанных сообщений. Освобождение (1940) DVDRip от New-Team

52 | 11

742.29 МБ

В этой теме нет новых непрочитанных сообщений. 60 дней (1940) DVDRip от New-Team

35 | 9

744.82 МБ

В этой теме нет новых непрочитанных сообщений. 60 дней (1940) DVDRip от New-Team

57 | 14

1.09 ГБ




Вы не можете начинать темы
Вы не можете отвечать на сообщения
Вы не можете редактировать свои сообщения
Вы не можете удалять свои сообщения
Вы не можете добавлять вложения

Перейти:  
Для Мосгорсуда, Роскомнадзора и рекламодателей: mosgorsud-torrent[собачка]yandex.ru
 Вход
ppkBB3cker v.2 © 2008-2014 @ PPK
[ Time : 0.039s | 17 Queries | GZIP : Off ]

Торрент трекер RUTOR.IN, Не можете зайти на rutor.org? Какой новый адрес рутор? Какое зеркало рутор? Не работает rutor.org и зеркала? Тогда наш торрент специально для вас. Rutor.in неофициальное зеркало rutor. В случае если у Вас заблокирован rutor или вдруг Вы не можете на него зайти, то Вы без труда сможете скачать бесплатно и без рекламы последние новинки кино, игр, сериалов и прочего у нас, на Rutor.in. Не нужно использовать прокси, чтобы зайти на рутор, достаточно воспользоваться нашим ресурсом. Все новые фильмы, игры, сериалы, книги и музыка за 2013 и 2014 годы через торрент бесплатно. Скачивайте фильмы в хорошем качестве, игры для пк, xbox, playstation без регистрации. У нас вы найдете новые Зарубежные сериалы и Русские сериалы 2013, 2014, 2015 годов. Оставайтесь с нами, качайте любимые фильмы, игры, сериалы, книги и музыку.