img image001 image001 image001 image001 image001 image001 image001 image001 image001 image001 image001 image001 image001 image001 image001

Planets Sun Sun Sun
Статистика раздачи
Автор: Nickolas3434 | Размер: 6.11 ГБ | Добавлен: 26 ноя 2014
Раздают: 93    Качают: 14
Скачать торрент
Скачать торрент
Описание торрента

СообщениеДобавлено: 26 ноя 2014 

Информация о фильме
Оригинальное название: Небо падших
Год выхода: 2014
Жанр: Драма
Режиссер: Валентин Донсков
В ролях: Кирилл Плетнёв, Екатерина Вилкова, Анастасия Панина, Даниил Воробьев, Александр Сирин, Александр Наумов, Егор Баринов, Владислав Ветров, Александр Печенин, Дмитрий Калистратов

О фильме:
Конец 1980-х. Павел Шарманов, будучи студентом авиационного института, всегда бредящий небом, начинал сторожем в музее авиации под открытым небом. Эта работа стремительно и кардинально изменила его дальнейшую жизнь. 1990-е. Перестройка. Деньги, власть, взятки, предательство друзей. Шарманов — основатель и владелец крупнейшей авиационной компании в стране. Все блага мира у его ног. Бери, что хочешь. Единственно, что недоступно успешному молодому мужчине — любовь. Он не ищет ее, но она найдет его «совсем нежданно», закрутит в лихом вихре, поднимет высоко в небеса, заставит чувствовать, парить и не придавать значения материальному… Чем выше и быстрее взлетаешь, тем быстрее и больнее падаешь. Любовь милосердна, но порой и жестока, и как любить, каждый решает сам…


Страна: Россия
Студия: Народное кино
Продолжительность: 01:57:34
Язык: Русский

Файл
Кодек: MPEG-4 AVC
Качество: HDTV 1080i
Видео: 6493 Кбит/с, 1920x1080, 25.000 кадр/с
Звук: Русский (АС3, 6 ch, 384 Кбит/с) / (MP2, 2 ch, 192 Кбит/с)

Семпл


Общее
Идентификатор : 17 (0x11)
Полное имя : Nebo.padshix.2014.HDTV(1080i).MediaClub.ts
Формат : MPEG-TS
Размер файла : 6,11 Гбайт
Продолжительность : 1 ч. 57 м.
Режим общего битрейта : Переменный
Общий поток : 7443 Кбит/сек

Видео
Идентификатор : 304 (0x130)
Идентификатор меню : 17104 (0x42D0)
Формат : AVC
Формат/Информация : Advanced Video Codec
Профиль формата : High@L4.0
Параметр CABAC формата : Да
Параметр ReFrames формата : 4 кадра
Идентификатор кодека : 27
Продолжительность : 1 ч. 57 м.
Битрейт : 6493 Кбит/сек
Ширина : 1920 пикселей
Высота : 1080 пикселей
Соотношение сторон : 16:9
Частота кадров : 25,000 кадров/сек
Стандарт вещания : Component
Цветовое пространство : YUV
Субдискретизация насыщенности : 4:2:0
Битовая глубина : 8 бит
Тип развёртки : Чересстрочная
Порядок развёртки : Верхнее поле первое
Бит/(Пиксели*Кадры) : 0.125
Размер потока : 5,33 Гбайт (87%)
Основные цвета : BT.709
Характеристики трансфера : BT.709
Коэффициенты матрицы : BT.709

Аудио #1
Идентификатор : 404 (0x194)
Идентификатор меню : 17104 (0x42D0)
Формат : MPEG Audio
Версия формата : Version 1
Профиль формата : Layer 2
Идентификатор кодека : 4
Продолжительность : 1 ч. 57 м.
Вид битрейта : Постоянный
Битрейт : 192 Кбит/сек
Каналы : 2 канала
Частота : 48,0 КГц
Метод сжатия : С потерями
Задержка видео : -853 мс.
Размер потока : 161 Мбайт (3%)
Язык : Russian
Язык, дополнительно : Clean effects

Аудио #2
Идентификатор : 424 (0x1A8)
Идентификатор меню : 17104 (0x42D0)
Формат : AC-3
Формат/Информация : Audio Coding 3
Расширение режима : CM (complete main)
Параметр Endianness формата : Big
Идентификатор кодека : 6
Продолжительность : 1 ч. 57 м.
Вид битрейта : Постоянный
Битрейт : 384 Кбит/сек
Каналы : 6 каналов
Расположение каналов : Front: L C R, Side: L R, LFE
Частота : 48,0 КГц
Битовая глубина : 16 бит
Метод сжатия : С потерями
Задержка видео : -845 мс.
Размер потока : 323 Мбайт (5%)
Язык : Russian
Язык, дополнительно : Clean effects

Меню
Идентификатор : 1704 (0x6A8)
Идентификатор меню : 17104 (0x42D0)
Продолжительность : 1 ч. 57 м.
Список : 304 (0x130) (AVC) / 404 (0x194) (MPEG Audio, Russian) / 424 (0x1A8) (AC-3, Russian)
Язык : / Russian / Russian


Релиз от:



   Похожие торренты   Торрент   Размер 
В этой теме нет новых непрочитанных сообщений. Небо падших (2014) HDTVRip от MediaClub

514 | 25

1.95 ГБ

В этой теме нет новых непрочитанных сообщений. Небо падших (2014) HDTVRip-AVC от MediaClub

419 | 14

2.12 ГБ

В этой теме нет новых непрочитанных сообщений. Небо падших (2014) HDTVRip 720p от MediaClub

335 | 28

3.15 ГБ

В этой теме нет новых непрочитанных сообщений. Обнимая небо [01-08 из 12] (2014) HDTV 1080i от MediaClub

51 | 73

27.11 ГБ

В этой теме нет новых непрочитанных сообщений. Обнимая небо [01-02 из 12] (2014) HDTV 1080i от MediaClub

76 | 54

7.42 ГБ

В этой теме нет новых непрочитанных сообщений. Обнимая небо [01-04 из 12] (2014) HDTV 1080i от MediaClub

184 | 109

13.97 ГБ

В этой теме нет новых непрочитанных сообщений. Обнимая небо [01-12 из 12] (2014) HDTV 1080i от MediaClub

217 | 271

39.67 ГБ




Вы не можете начинать темы
Вы не можете отвечать на сообщения
Вы не можете редактировать свои сообщения
Вы не можете удалять свои сообщения
Вы не можете добавлять вложения

Перейти:  
Для Мосгорсуда, Роскомнадзора и рекламодателей: mosgorsud-torrent[собачка]yandex.ru
 Вход
ppkBB3cker v.2 © 2008-2014 @ PPK
[ Time : 0.569s | 15 Queries | GZIP : Off ]

Торрент трекер RUTOR.IN, Не можете зайти на rutor.org? Какой новый адрес рутор? Какое зеркало рутор? Не работает rutor.org и зеркала? Тогда наш торрент специально для вас. Rutor.in неофициальное зеркало rutor. В случае если у Вас заблокирован rutor или вдруг Вы не можете на него зайти, то Вы без труда сможете скачать бесплатно и без рекламы последние новинки кино, игр, сериалов и прочего у нас, на Rutor.in. Не нужно использовать прокси, чтобы зайти на рутор, достаточно воспользоваться нашим ресурсом. Все новые фильмы, игры, сериалы, книги и музыка за 2013 и 2014 годы через торрент бесплатно. Скачивайте фильмы в хорошем качестве, игры для пк, xbox, playstation без регистрации. У нас вы найдете новые Зарубежные сериалы и Русские сериалы 2013, 2014, 2015 годов. Оставайтесь с нами, качайте любимые фильмы, игры, сериалы, книги и музыку.