img image001 image001 image001 image001 image001 image001 image001 image001 image001 image001 image001 image001 image001 image001 image001

Planets Sun Sun Sun
Статистика раздачи
Автор: Nickolas3434 | Размер: 1.09 ГБ | Добавлен: 26 ноя 2014
Раздают: 322    Качают: 9
Скачать торрент
Скачать торрент
Описание торрента

СообщениеДобавлено: 26 ноя 2014 

Страна: СССР
Производство: Госкино, Мосфильм, Союздетфильм

Жанр: короткометражка, военный
Год выпуска: 1941
Продолжительность: 01:27:05 (00:32:23+00:54:42)

Перевод: не требуется
Оригинальная аудиодорожка: русский
Cубтитры: нет

Режиссер: Евгений Некрасов, Иван Мутанов, Александр Оленин, Лев Арнштам , Евгений Червякова

В ролях:
Петр Репнин, Владимир Канцель, Михаил Трояновский, Виктор Бубнов, Наталья Петропавловская, М. Яндульский, А. Герр, Борис Чирков, Владимир Лукин, Д. Миловзоров, В. Крюгер, Зинаида Воркуль, У. Круг, Борис Блинов, Иван Кузнецов, Александр Мельников, Михаил Екатериненский, Татьяна Сукова...

Описание:
Первый из «Боевых киносборников» вышел через полтора месяца после начала Великой Отечественной войны 2 августа 1941 года…





Исходник: DVD5 R5
Тип релиза: DVDRip
Контейнер: AVI

Видео: 688x512 (4:3), 25 fps, XviD ~ 1591 kbps avg, 0.181 bit/pixel
Аудио: 48 kHz, Dolby AC3 2.0, 192 kbps

Раздача от:
Боевой киносборник № 1 (35 мин.)

Встреча с Максимом
На экране проходят последние кадры фильма "Выборгская сторона", заключительного фильма из знаменитой трилогии о Максиме. Фильм заканчивается, и его герой как бы сойдя с экрана, обращается к своим зрителям с патриотическим призывом идти на борьбу с фашистами.

Трое в воронке
Раненый красноармеец дополз до воронки, где медсестра смогла оказать ему первую помощь. Вскоре появляется раненый немец, и сестра милосердия оказывает помощь и ему. Однако фашист пытается застрелить девушку…

Сон в руку
Фильм в сатирической форме "предостерегает" Гитлера в его тревожном сне от неизбежного поражения на русской земле. Ему снятся Наполеон, немецкие оккупанты 1918 года — все те, кто испытал на собственной шкуре силу русского оружия.

Боевой киносборник №2 (55 мин.)

Встреча
Войска немецко-фашистских захватчиков оккупировали Польшу. Белорусского крестьянина, сберегшего чашку молока для больного ребенка, приговаривают к расстрелу. Герою удается бежать. 22 июня 1941 он вновь встречается, уже в открытом бою, лицом к лицу с офицером, когда-то поставившим его под дуло автомата...

Один из многих
Немецкий летчик, один из первых среди асов, во время бомбардировки одного из наших городов становится одним из многих, сбитых нашими зенитчиками.

У старой няни
Когда-то, еще до войны, молодая женщина была няней в немецкой семье. Став диверсантом, ее воспитанник, давно уехавший со своей семьей в Германию, теперь пытается найти убежище у старой няни. Женщина узнает гостя, и вместе с внуком "сдает" его красноармейцам. Последняя работа в кино Евгения Червякова.

Сто за одного
За убийство югославом-патриотом фашистского офицера гитлеровцы готовят к расстрелу сто заложников. С помощью лопат, выданных для рытья могил, приговоренные к смерти уничтожают немецкую охрану и уходят в горы к партизанам.

Случай на телеграфе
К окошечку телеграфа подходит... Наполеон. Девушка-кассир, нисколько не смутившись, подсчитывает стоимость телеграммы, адресованной Гитлеру: "Попробовал, не советую".

Общее
Полное имя : Boevoy.kinosbornik.№1-2.1941.DVDRip_[New-team]_by_AVP_Studio.avi
Формат : AVI
Формат/Информация : Audio Video Interleave
Размер файла : 701 Мбайт
Продолжительность : 54 м.
Общий поток : 1792 Кбит/сек
Программа кодирования : VirtualDubModRus 1.5.10.2 (build 2542/release)
Библиотека кодирования : VirtualDubMod build 2542/release

Видео
Идентификатор : 0
Формат : MPEG-4 Visual
Профиль формата : Advanced Simple@L5
Параметр BVOP формата : 1
Параметр QPel формата : Нет
Параметр GMC формата : Без точки перехода
Параметр матрицы формата : Выборочная
Идентификатор кодека : XVID
Идентификатор кодека/Подсказка : XviD
Продолжительность : 54 м.
Битрейт : 1591 Кбит/сек
Ширина : 688 пикселей
Высота : 512 пикселей
Соотношение сторон : 4:3
Частота кадров : 25,000 кадров/сек
Цветовое пространство : YUV
Субдискретизация насыщенности : 4:2:0
Битовая глубина : 8 бит
Тип развёртки : Прогрессивная
Метод сжатия : С потерями
Бит/(Пиксели*Кадры) : 0.181
Размер потока : 622 Мбайт (89%)
Библиотека кодирования : XviD 73

Аудио
Идентификатор : 1
Формат : AC-3
Формат/Информация : Audio Coding 3
Расширение режима : CM (complete main)
Параметр Endianness формата : Big
Идентификатор кодека : 2000
Продолжительность : 54 м.
Вид битрейта : Постоянный
Битрейт : 192 Кбит/сек
Каналы : 2 канала
Расположение каналов : Front: L R
Частота : 48,0 КГц
Битовая глубина : 16 бит
Метод сжатия : С потерями
Размер потока : 75,1 Мбайт (11%)
Выравнивание : Разделение по промежуткам
Продолжительность промежутка : 40 мс. (1,00 видеокадр)
Время предзагрузки промежутка : 500 мс





   Похожие торренты   Торрент   Размер 
В этой теме нет новых непрочитанных сообщений. Боевой киносборник № 1-2 (1941) DVDRip от New-Team

21 | 5

741.93 МБ

В этой теме нет новых непрочитанных сообщений. Боевой киносборник № 3-4 (1941) DVDRip от New-Team

36 | 27

1.45 ГБ

В этой теме нет новых непрочитанных сообщений. Боевой киносборник № 5-6 (1941) DVDRip-AVC от New-Team

28 | 7

1.46 ГБ

В этой теме нет новых непрочитанных сообщений. Боевой киносборник № 5-6 (1941) DVDRip от New-Team

14 | 8

743.96 МБ

В этой теме нет новых непрочитанных сообщений. Боевой киносборник № 5-6 (1941) DVDRip от New-Team

19 | 15

1.46 ГБ

В этой теме нет новых непрочитанных сообщений. Боевой киносборник № 3-4 (1941) DVDRip-AVC от New-Team

20 | 6

1.45 ГБ

В этой теме нет новых непрочитанных сообщений. Боевой киносборник № 3-4 (1941) DVDRip от New-Team

15 | 9

744.37 МБ




Вы не можете начинать темы
Вы не можете отвечать на сообщения
Вы не можете редактировать свои сообщения
Вы не можете удалять свои сообщения
Вы не можете добавлять вложения

Перейти:  
Для Мосгорсуда, Роскомнадзора и рекламодателей: mosgorsud-torrent[собачка]yandex.ru
 Вход
ppkBB3cker v.2 © 2008-2014 @ PPK
[ Time : 0.050s | 16 Queries | GZIP : On ]

Торрент трекер RUTOR.IN, Не можете зайти на rutor.org? Какой новый адрес рутор? Какое зеркало рутор? Не работает rutor.org и зеркала? Тогда наш торрент специально для вас. Rutor.in неофициальное зеркало rutor. В случае если у Вас заблокирован rutor или вдруг Вы не можете на него зайти, то Вы без труда сможете скачать бесплатно и без рекламы последние новинки кино, игр, сериалов и прочего у нас, на Rutor.in. Не нужно использовать прокси, чтобы зайти на рутор, достаточно воспользоваться нашим ресурсом. Все новые фильмы, игры, сериалы, книги и музыка за 2013 и 2014 годы через торрент бесплатно. Скачивайте фильмы в хорошем качестве, игры для пк, xbox, playstation без регистрации. У нас вы найдете новые Зарубежные сериалы и Русские сериалы 2013, 2014, 2015 годов. Оставайтесь с нами, качайте любимые фильмы, игры, сериалы, книги и музыку.