img image001 image001 image001 image001 image001 image001 image001 image001 image001 image001 image001 image001 image001 image001 image001

Planets Sun Sun Sun
Статистика раздачи
Автор: Nickolas3434 | Размер: 741.93 МБ | Добавлен: 26 ноя 2014
Раздают: 21    Качают: 5
Скачать торрент
Скачать торрент
Описание торрента

СообщениеДобавлено: 26 ноя 2014 

Страна: СССР
Производство: Госкино, Мосфильм, Союздетфильм

Жанр: короткометражка, военный
Год выпуска: 1941
Продолжительность: 01:27:05 (00:32:23+00:54:42)

Перевод: не требуется
Оригинальная аудиодорожка: русский
Cубтитры: нет

Режиссер: Евгений Некрасов, Иван Мутанов, Александр Оленин, Лев Арнштам , Евгений Червякова

В ролях:
Петр Репнин, Владимир Канцель, Михаил Трояновский, Виктор Бубнов, Наталья Петропавловская, М. Яндульский, А. Герр, Борис Чирков, Владимир Лукин, Д. Миловзоров, В. Крюгер, Зинаида Воркуль, У. Круг, Борис Блинов, Иван Кузнецов, Александр Мельников, Михаил Екатериненский, Татьяна Сукова...

Описание:
Первый из «Боевых киносборников» вышел через полтора месяца после начала Великой Отечественной войны 2 августа 1941 года…





Исходник: DVD5 R5
Тип релиза: DVDRip
Контейнер: AVI

Видео: 640x480 (4:3), 25 fps, XviD ~ 1052 kbps avg, 0.137 bit/pixel
Аудио: 48 kHz, MP3 2.0, 128 kbps

Раздача от:
Боевой киносборник № 1 (35 мин.)

Встреча с Максимом

На экране проходят последние кадры фильма "Выборгская сторона", заключительного фильма из знаменитой трилогии о Максиме. Фильм заканчивается, и его герой как бы сойдя с экрана, обращается к своим зрителям с патриотическим призывом идти на борьбу с фашистами.

Трое в воронке
Раненый красноармеец дополз до воронки, где медсестра смогла оказать ему первую помощь. Вскоре появляется раненый немец, и сестра милосердия оказывает помощь и ему. Однако фашист пытается застрелить девушку…

Сон в руку
Фильм в сатирической форме "предостерегает" Гитлера в его тревожном сне от неизбежного поражения на русской земле. Ему снятся Наполеон, немецкие оккупанты 1918 года — все те, кто испытал на собственной шкуре силу русского оружия.

Боевой киносборник №2 (55 мин.)

Встреча
Войска немецко-фашистских захватчиков оккупировали Польшу. Белорусского крестьянина, сберегшего чашку молока для больного ребенка, приговаривают к расстрелу. Герою удается бежать. 22 июня 1941 он вновь встречается, уже в открытом бою, лицом к лицу с офицером, когда-то поставившим его под дуло автомата...

Один из многих
Немецкий летчик, один из первых среди асов, во время бомбардировки одного из наших городов становится одним из многих, сбитых нашими зенитчиками.

У старой няни
Когда-то, еще до войны, молодая женщина была няней в немецкой семье. Став диверсантом, ее воспитанник, давно уехавший со своей семьей в Германию, теперь пытается найти убежище у старой няни. Женщина узнает гостя, и вместе с внуком "сдает" его красноармейцам. Последняя работа в кино Евгения Червякова.

Сто за одного
За убийство югославом-патриотом фашистского офицера гитлеровцы готовят к расстрелу сто заложников. С помощью лопат, выданных для рытья могил, приговоренные к смерти уничтожают немецкую охрану и уходят в горы к партизанам.

Случай на телеграфе
К окошечку телеграфа подходит... Наполеон. Девушка-кассир, нисколько не смутившись, подсчитывает стоимость телеграммы, адресованной Гитлеру: "Попробовал, не советую".

Общее
Полное имя : Boevoy.kinosbornik.№1-2.1941.DVDRip-745_[New-team]_by_AVP_Studio.avi
Формат : AVI
Формат/Информация : Audio Video Interleave
Размер файла : 275 Мбайт
Продолжительность : 32 м.
Общий поток : 1189 Кбит/сек
Программа кодирования : VirtualDubModRus 1.5.10.2 (build 2542/release)
Библиотека кодирования : VirtualDubMod build 2542/release

Видео
Идентификатор : 0
Формат : MPEG-4 Visual
Профиль формата : Advanced Simple@L5
Параметр BVOP формата : 1
Параметр QPel формата : Нет
Параметр GMC формата : Без точки перехода
Параметр матрицы формата : Выборочная
Идентификатор кодека : XVID
Идентификатор кодека/Подсказка : XviD
Продолжительность : 32 м.
Битрейт : 1052 Кбит/сек
Ширина : 640 пикселей
Высота : 480 пикселей
Соотношение сторон : 4:3
Частота кадров : 25,000 кадров/сек
Цветовое пространство : YUV
Субдискретизация насыщенности : 4:2:0
Битовая глубина : 8 бит
Тип развёртки : Прогрессивная
Метод сжатия : С потерями
Бит/(Пиксели*Кадры) : 0.137
Размер потока : 243 Мбайт (88%)
Библиотека кодирования : XviD 73

Аудио
Идентификатор : 1
Формат : MPEG Audio
Версия формата : Version 1
Профиль формата : Layer 3
Идентификатор кодека : 55
Идентификатор кодека/Подсказка : MP3
Продолжительность : 32 м.
Вид битрейта : Постоянный
Битрейт : 128 Кбит/сек
Каналы : 2 канала
Частота : 48,0 КГц
Метод сжатия : С потерями
Размер потока : 29,6 Мбайт (11%)
Выравнивание : Соединение по промежуткам
Продолжительность промежутка : 40 мс. (1,00 видеокадр)
Время предзагрузки промежутка : 504 мс.
Библиотека кодирования : LAME3.99r
Настройки программы : -m s -V 4 -q 2 -lowpass 17 -b 128





   Похожие торренты   Торрент   Размер 
В этой теме нет новых непрочитанных сообщений. Боевой киносборник № 3-4 (1941) DVDRip-AVC от New-Team

20 | 6

1.45 ГБ

В этой теме нет новых непрочитанных сообщений. Боевой киносборник № 3-4 (1941) DVDRip от New-Team

15 | 10

744.37 МБ

В этой теме нет новых непрочитанных сообщений. Боевой киносборник № 3-4 (1941) DVDRip от New-Team

32 | 26

1.45 ГБ

В этой теме нет новых непрочитанных сообщений. Боевой киносборник № 5-6 (1941) DVDRip от New-Team

19 | 15

1.46 ГБ

В этой теме нет новых непрочитанных сообщений. Боевой киносборник № 5-6 (1941) DVDRip от New-Team

14 | 8

743.96 МБ

В этой теме нет новых непрочитанных сообщений. Боевой киносборник № 1-2 (1941) DVDRip-AVC от New-Team

20 | 4

1.09 ГБ

В этой теме нет новых непрочитанных сообщений. Боевой киносборник № 1-2 (1941) DVDRip от New-Team

322 | 9

1.09 ГБ




Вы не можете начинать темы
Вы не можете отвечать на сообщения
Вы не можете редактировать свои сообщения
Вы не можете удалять свои сообщения
Вы не можете добавлять вложения

Перейти:  
Для Мосгорсуда, Роскомнадзора и рекламодателей: mosgorsud-torrent[собачка]yandex.ru
 Вход
ppkBB3cker v.2 © 2008-2014 @ PPK
[ Time : 0.022s | 17 Queries | GZIP : Off ]

cron